Скачать через торрент музыку Death March Kantai - Iro Iro Arukedo La La La no La бесплатно без регистрации torrent

Если у вас наблюдаются проблемы со скриншотами, переходом по ссылками, скачиванием торрентов - проблемы в блокировщике рекламы AdBlock. #хорошегоДня!


Статистика раздачи
Размер:  111 MB   |    Зарегистрирован:  4 года 11 месяцев   |    .torrent скачан:  24 раза   |   
Раздают:  1  
   
Загрузка...
 
Автор Сообщение

Galfimbul

avatar Galfimbul


Death March Kantai / Iro Iro Arukedo La La La no La (EP)

Жанр: ska, japanese, japan, psychobilly
Страна-производитель диска: Japan
Год издания: 1999
Страна: Japan
Аудиокодек: FLAC (*.flac)
Тип рипа: tracks+.cue
Битрейт аудио: lossless
Продолжительность: 15:48
Источник (релизер): voodoosama / what.cd
Наличие сканов в содержимом раздачи: нет
Треклист:
01 - いろいろあるけどラララのラ
02 - こんな時代だから愛の言葉
03 - 生まれてこのかた
04 - 死神艦隊
Exact Audio Copy V1.0 beta 3 from 29. August 2011

EAC extraction logfile from 14. September 2012, 17:44

Death March Kantai / Iro Iro Arukedo La La La no La

Used drive : HL-DT-STBDDVDRW CH08LS10 Adapter: 4 ID: 0

Read mode : SecureUtilize accurate stream : YesDefeat audio cache : YesMake use of C2 pointers : No

Read offset correction : 667Overread into Lead-In and Lead-Out : NoFill up missing offset samples with silence : YesDelete leading and trailing silent blocks : NoNull samples used in CRC calculations : YesUsed interface : Native Win32 interface for Win NT & 2000Gap handling : Appended to previous track

Used output format : User Defined EncoderSelected bitrate : 1024 kBit/sQuality : HighAdd ID3 tag : NoCommand line compressor : C:\Program Files (x86)\Exact Audio Copy\Flac\flac.exeAdditional command line options : -8 -V -T "ARTIST=%artist%" -T "TITLE=%title%" -T "ALBUM=%albumtitle%" -T "DATE=%year%" -T "TRACKNUMBER=%tracknr%" -T "GENRE=%genre%" -T "PERFORMER=%albuminterpret%" -T "COMPOSER=%composer%" %haslyrics%--tag-from-file=LYRICS="%lyricsfile%"%haslyrics% -T "ALBUMARTIST=%albumartist%" -T "DISCNUMBER=%cdnumber%" -T "TOTALDISCS=%totalcds%" -T "TOTALTRACKS=%numtracks%" -T "COMMENT=%comment%" %source% -o %dest%

TOC of the extracted CD

Track | Start | Length | Start sector | End sector --------------------------------------------------------- 1 | 0:00.00 | 3:29.60 | 0 | 15734 2 | 3:29.60 | 4:26.68 | 15735 | 35752 3 | 7:56.53 | 4:36.00 | 35753 | 56452 4 | 12:32.53 | 3:15.37 | 56453 | 71114

Track 1

Filename L:\FLAC\Death March Kantai - Iro Iro Arukedo La La La no La (1999) [FLAC] {TECN-13546}\01 - いろいろあるけどラララのラ.wav

Pre-gap length 0:00:02.00

Peak level 100.0 % Extraction speed 0.9 X Track quality 99.9 % Test CRC EE8DDE3D Copy CRC EE8DDE3D Track not present in AccurateRip database Copy OK

Track 2

Filename L:\FLAC\Death March Kantai - Iro Iro Arukedo La La La no La (1999) [FLAC] {TECN-13546}\02 - こんな時代だから愛の言葉.wav

Pre-gap length 0:00:01.29

Peak level 100.0 % Extraction speed 1.1 X Track quality 99.9 % Test CRC 551B68EF Copy CRC 551B68EF Track not present in AccurateRip database Copy OK

Track 3

Filename L:\FLAC\Death March Kantai - Iro Iro Arukedo La La La no La (1999) [FLAC] {TECN-13546}\03 - 生まれてこのかた.wav

Pre-gap length 0:00:01.30

Peak level 100.0 % Extraction speed 1.3 X Track quality 100.0 % Test CRC FE05B4B4 Copy CRC FE05B4B4 Track not present in AccurateRip database Copy OK

Track 4

Filename L:\FLAC\Death March Kantai - Iro Iro Arukedo La La La no La (1999) [FLAC] {TECN-13546}\04 - 死神艦隊.wav

Pre-gap length 0:00:02.80

Peak level 100.0 % Extraction speed 1.4 X Track quality 100.0 % Test CRC 964972A4 Copy CRC 964972A4 Track not present in AccurateRip database Copy OK

None of the tracks are present in the AccurateRip database

No errors occurred

End of status report

---- CUETools DB Plugin V2.1.3

[CTDB TOCID: wPs7ztFrlmVFYaPkWoKCCHquc0A-] disk not present in database, Submit result: wPs7ztFrlmVFYaPkWoKCCHquc0A- has been uploaded

==== Log checksum 9A2EF0E303EAFAEEEF0D5448FE8828E10230BC8BDABA9F8A3DC12123A4DA35F8 ====
REM GENRE RockREM DATE 1999REM DISCID 2903B404REM COMMENT "ExactAudioCopy v1.0b3"CATALOG 4988004075476PERFORMER "Death March Kantai"TITLE "Iro Iro Arukedo La La La no La"FILE "01 - ..............wav" WAVE TRACK 01 AUDIO TITLE "............." PERFORMER "Death March Kantai" ISRC JPTE09901230 INDEX 01 00:00:00 TRACK 02 AUDIO TITLE "............" PERFORMER "Death March Kantai" ISRC JPTE09901240 INDEX 00 03:28:38FILE "02 - .............wav" WAVE INDEX 01 00:00:00 TRACK 03 AUDIO TITLE "........" PERFORMER "Death March Kantai" ISRC JPTE09901250 INDEX 00 04:25:45FILE "03 - .........wav" WAVE INDEX 01 00:00:00 TRACK 04 AUDIO TITLE "...." PERFORMER "Death March Kantai" ISRC JPTE09901260 INDEX 00 04:33:15FILE "04 - .....wav" WAVE INDEX 01 00:00:00
Доп. информация: Нежно и трепетно любимая мной группа. Не побоюсь этого слова неповторимая. Очень хотелось бы ошибиться, конечно К сожалению этот EP - единственное, что нашлось в lossless.
Yabamaru : Trumpet
Tanaka-sensei : Барабаны
Osho : Вокал, Бас-гитара
Shinya : Гитара
Sugitaapan : Saxophone


Трекер:  [ 19-Сен-2012 15:43 ]

  

Скачать .torrent

Размер .torrent файла 18 KB


Размер: 111 MB
Хэш (hash) релиза: f948b77c8fe0c252dd6378f0ae8fb2c5103d777c

Еще никто не оставлял запись к записи скачать торрент Death March Kantai - Iro Iro Arukedo La La La no La . Будь первым!

!Обратная связь