Скачать через торрент музыку Paul Korda бесплатно без регистрации torrent

Если у вас наблюдаются проблемы со скриншотами, переходом по ссылками, скачиванием торрентов - проблемы в блокировщике рекламы AdBlock. #хорошегоДня!


Статистика раздачи
Размер:  315 MB   |    Зарегистрирован:  4 года 11 месяцев   |    .torrent скачан:  6 раз   |   
Раздают:  1  
   
Загрузка...
 
Автор Сообщение

Galfimbul

avatar Galfimbul


Paul Korda (ex-Dada) / Passing Stranger

Жанр: Rock, Pop Rock, Soul
Страна-производитель диска: EU
Год издания: 2012
Издатель (лейбл): RMP Records
Номер по каталогу: Retro 907
Страна: UK
Аудиокодек: FLAC (*.flac)
Тип рипа: image+.cue
Битрейт аудио: lossless
Продолжительность: 42:59
Источник (релизер): Собственный рип
Наличие сканов в содержимом раздачи: да
Треклист:
1. Between The Road (2:33)
2. Morning Wakes The Sun (2:46)
3. Dover Ferry (2:57)
4. To Love A Woman (4:26)
5. Ode To The Ministry (2:45)
6. Into Your Station (3:12)
7. Pass Me Winter (2:17)
8. Under Other Skies (2:29)
9. Rubble My Cauldron (2:34)
10. We Are Each Other (4:04)
11. A Passing Stranger (2:53)
12. Sunny In The Dawn (2:28)
13. Mud Mother (1:13)
Bonus Tracks
14.English Country Garden (Bonus / Single B-Side) (2:43)
15. Seagull(Bonus /Single 1969) (3:39)
Exact Audio Copy V0.99 prebeta 5 from 4. May 2009

EAC extraction logfile from 14. September 2012, 20:07

Paul Korda / Passing Stranger

Used drive : PIONEER DVD-RW DVR-111D Adapter: 1 ID: 0

Read mode : SecureUtilize accurate stream : YesDefeat audio cache : YesMake use of C2 pointers : No

Read offset correction : 48Overread into Lead-In and Lead-Out : NoFill up missing offset samples with silence : YesDelete leading and trailing silent blocks : NoNull samples used in CRC calculations : YesUsed interface : Native Win32 interface for Win NT & 2000

Used output format : User Defined EncoderSelected bitrate : 768 kBit/sQuality : HighAdd ID3 tag : NoCommand line compressor : C:\Program Files\Exact Audio Copy\FLAC\FLAC.EXEAdditional command line options : -6 -V -T "ARTIST=%a" -T "TITLE=%t" -T "ALBUM=%g" -T "DATE=%y" -T "TRACKNUMBER=%n" -T "GENRE=%m" -T "COMMENT=%e" %s -o %d

TOC of the extracted CD

Track | Start | Length | Start sector | End sector --------------------------------------------------------- 1 | 0:00.00 | 2:33.35 | 0 | 11509 2 | 2:33.35 | 2:46.70 | 11510 | 24029 3 | 5:20.30 | 2:57.51 | 24030 | 37355 4 | 8:18.06 | 4:26.40 | 37356 | 57345 5 | 12:44.46 | 2:45.41 | 57346 | 69761 6 | 15:30.12 | 3:12.33 | 69762 | 84194 7 | 18:42.45 | 2:17.18 | 84195 | 94487 8 | 20:59.63 | 2:29.08 | 94488 | 105670 9 | 23:28.71 | 2:34.40 | 105671 | 117260 10 | 26:03.36 | 4:04.38 | 117261 | 135598 11 | 30:07.74 | 2:53.11 | 135599 | 148584 12 | 33:01.10 | 2:28.67 | 148585 | 159751 13 | 35:30.02 | 1:13.06 | 159752 | 165232 14 | 36:43.08 | 2:43.61 | 165233 | 177518 15 | 39:26.69 | 3:39.33 | 177519 | 193976

Range status and errors

Selected range

Filename D:\1\Paul Korda - Passing Stranger.wav

Peak level 96.6 % Range quality 100.0 % Test CRC 5026EC7A Copy CRC 5026EC7A Copy OK

No errors occurred

AccurateRip summary

Track 1 not present in databaseTrack 2 not present in databaseTrack 3 not present in databaseTrack 4 not present in databaseTrack 5 not present in databaseTrack 6 not present in databaseTrack 7 not present in databaseTrack 8 not present in databaseTrack 9 not present in databaseTrack 10 not present in databaseTrack 11 not present in databaseTrack 12 not present in databaseTrack 13 not present in databaseTrack 14 not present in databaseTrack 15 not present in database

None of the tracks are present in the AccurateRip database

End of status report
• Bass, Vocals, Acoustic Guitar, Keyboards – Allan Gorrie
• Drums – Rob Tait
• Electric Guitar – Ray Russell
• Guitar – Owen McIntyre
• Guitar, Vocals, Keyboards – Paul Korda
• Photography By – Hesta Adams, Vic Smith
• Producer – Vic Smith
• Written-By – Paul Korda


Трекер:  [ 19-Сен-2012 15:43 ]

  

Скачать .torrent

Размер .torrent файла 13 KB


Размер: 315 MB
Хэш (hash) релиза: 36753490fcf0625877d9db324386331d3a4d40ea

Торренты, похожие на Paul Korda скачать торрент

Форум Название Автор Размер S L Добавлен
Зарубежный Rock ·· (Prog Rock) Paul Korda (ex-Dada) - Passing Stranger - 1971, MP3, 320 kbps Galfimbul 171737926164 MB 0 0 1348063080

16:58

19-Сен-12

Еще никто не оставлял запись к записи скачать торрент Paul Korda . Будь первым!

!Обратная связь