Скачать через торрент музыку Damien Youth - Phantoms Of Fables - 2005, FLAC бесплатно без регистрации torrent

Если у вас наблюдаются проблемы со скриншотами, переходом по ссылками, скачиванием торрентов - проблемы в блокировщике рекламы AdBlock. #хорошегоДня!


Статистика раздачи
Размер:  364 MB   |    Зарегистрирован:  4 года 10 месяцев   |    .torrent скачан:  19 раз   |   
Раздают:  1  
   
Загрузка...
 
Автор Сообщение

Galfimbul

avatar Galfimbul


Damien Youth / Phantoms Of Fables (2005)

Жанр: Acoustiс Rock, Singer-songwriter, Psychedelic
Страна-производитель диска: France
Год издания: 2005
Издатель (лейбл): Zygote Records
Страна: USA
Аудиокодек: FLAC (*.flac)
Тип рипа: image+.cue
Битрейт аудио: lossless
Продолжительность: 01:05:02
Источник (релизер): Собственный диск
Наличие сканов в содержимом раздачи: да
Треклист:
1 - Artemis
2 - Hope
3 - Red Ghost Mother
4 - Anastacia
5 - The Days Are But Molecules
6 - I Know Where Robyn Hitchcock Lives
7 - Freaked Out
8 - Doll Child
9 - There Goes My Girl
10 - Valentine Boyfriend
11 - Lies We Tell
12 - Spy In My Tree
13 - Rooms Of December
14 - Don't Want To Be
15 - Dead Relative
16 - Galaxies
Exact Audio Copy V1.0 beta 3 from 29. August 2011

EAC extraction logfile from 13. September 2012, 20:54

Damien Youth / Phantoms of Fables

Used drive : HL-DT-STDVDRAM GH24NS90 Adapter: 4 ID: 0

Read mode : SecureUtilize accurate stream : YesDefeat audio cache : YesMake use of C2 pointers : No

Read offset correction : 6Overread into Lead-In and Lead-Out : NoFill up missing offset samples with silence : YesDelete leading and trailing silent blocks : NoNull samples used in CRC calculations : YesUsed interface : Native Win32 interface for Win NT & 2000

Used output format : User Defined EncoderSelected bitrate : 1024 kBit/sQuality : HighAdd ID3 tag : NoCommand line compressor : C:\Program Files\Exact Audio Copy\Flac\flac.exeAdditional command line options : -8 -V -T "ARTIST=%artist%" -T "TITLE=%title%" -T "ALBUM=%albumtitle%" -T "DATE=%year%" -T "TRACKNUMBER=%tracknr%" -T "GENRE=%genre%" -T "PERFORMER=%albuminterpret%" -T "COMPOSER=%composer%" %haslyrics%--tag-from-file=LYRICS="%lyricsfile%"%haslyrics% -T "ALBUMARTIST=%albumartist%" -T "DISCNUMBER=%cdnumber%" -T "TOTALDISCS=%totalcds%" -T "TOTALTRACKS=%numtracks%" -T "COMMENT=%comment%" %source% -o %dest%

TOC of the extracted CD

Track | Start | Length | Start sector | End sector --------------------------------------------------------- 1 | 0:00.00 | 4:21.29 | 0 | 19603 2 | 4:21.29 | 3:57.35 | 19604 | 37413 3 | 8:18.64 | 4:01.07 | 37414 | 55495 4 | 12:19.71 | 5:19.58 | 55496 | 79478 5 | 17:39.54 | 4:07.70 | 79479 | 98073 6 | 21:47.49 | 3:58.44 | 98074 | 115967 7 | 25:46.18 | 3:03.43 | 115968 | 129735 8 | 28:49.61 | 2:34.41 | 129736 | 141326 9 | 31:24.27 | 3:09.71 | 141327 | 155572 10 | 34:34.23 | 4:23.16 | 155573 | 175313 11 | 38:57.39 | 5:12.21 | 175314 | 198734 12 | 44:09.60 | 4:28.25 | 198735 | 218859 13 | 48:38.10 | 3:30.49 | 218860 | 234658 14 | 52:08.59 | 3:38.67 | 234659 | 251075 15 | 55:47.51 | 3:35.25 | 251076 | 267225 16 | 59:23.01 | 5:38.64 | 267226 | 292639

Range status and errors

Selected range

Filename C:\_UPLOAD\_EAC\Новая папка\Damien Youth - Phantoms of Fables.wav

Peak level 100.0 % Extraction speed 2.0 X Range quality 100.0 % Test CRC 087E6C9E Copy CRC 087E6C9E Copy OK

No errors occurred

AccurateRip summary

Track 1 accurately ripped (confidence 1) [B1A26A9E] (AR v1)Track 2 accurately ripped (confidence 1) [A76A7029] (AR v1)Track 3 accurately ripped (confidence 1) [BB72C2F3] (AR v1)Track 4 accurately ripped (confidence 1) [FCE05ECF] (AR v1)Track 5 accurately ripped (confidence 1) [70B97F22] (AR v1)Track 6 accurately ripped (confidence 1) [07DA054E] (AR v1)Track 7 accurately ripped (confidence 1) [D48DB1D2] (AR v1)Track 8 accurately ripped (confidence 1) [84AECFE3] (AR v1)Track 9 accurately ripped (confidence 1) [BE4C1A6D] (AR v1)Track 10 accurately ripped (confidence 1) [20F03761] (AR v1)Track 11 accurately ripped (confidence 1) [C1752CB7] (AR v1)Track 12 accurately ripped (confidence 1) [2B99DDFE] (AR v1)Track 13 accurately ripped (confidence 1) [1D4A83EF] (AR v1)Track 14 accurately ripped (confidence 1) [66405BDD] (AR v1)Track 15 accurately ripped (confidence 1) [EFAD200A] (AR v1)Track 16 accurately ripped (confidence 1) [5D590201] (AR v1)

All tracks accurately ripped

End of status report

---- CUETools DB Plugin V2.1.3

[CTDB TOCID: z5NONl6GL8tnnm__NU6P02EV07E-] found[e3c1e063] (1/1) No match

==== Log checksum BA46E00FB81D5D9C1A485EF81204E97388A196A0F25C2D8DB6F645281BC128EA ====
http://www.myspace.com/damienyouth

http://www.facebook.com/damien.youth

http://damienyouth.com/

http://damienyouth.bandcamp.com

http://www.nme.com/artists/damien-youth

http://rateyourmusic.com/artist/damien_youth

http://www.vh1.com/artists/az/youth_damien/bio.jhtml

http://www.allmusic.com/cg/amg.dll?p=amg&sql=11:dnfrxqlhldae
The All Music Guide describes Damien Youth: A mysterious cassette-only artist who began putting out material on tape in the late 1980s, although some of it started to appear on CD in the late 1990s. His music is haunting, acoustic rock with a sense of British whimsy akin to Robyn Hitchcock or Donovan (although, as his tapes were distributed from Louisiana, it's uncertain whether the singer is British). It's solid, melodic stuff that would most likely appeal to Hitchcock fans, despite the sparse production. His BRIDE OF THE ASYLUM CD of 1998 put some of his work into slightly larger circulation, in better fidelity. — Richie Unterberger
http://damienyouth.bandcamp.com/album/phantoms-of-fables
All Music Guide REVIEW by Richie Unterberger: The song remains pretty much the same over the course of the prolific Damien Youth's releases, but it's a pretty good song. And you get more than one song, of course, on Phantoms of Fables, though the approach is in line with most of his previous albums: pleasant, acoustic-based folk-pop-rock-psychedelia with some unusual lyrical twists. Since that nutshell description could be applied to some Robyn Hitchcock records, it's not that much of a surprise to find a tune here titled I Know Where Robyn Hitchcock Lives, itself likely a partial homage to Television Personalities' cult homage I Know Where Syd Barrett Lives. For the most part, however, the material's devoted to the kind of moods and topics common to Damien Youth territory: pastoral romance with a touch of the gothic and mystical, ghosts, melancholy days in the life (These Days Are But Molecules), and trippy and fearful disorientation (Freaked Out, Dead Relative). Some of the lyrics go into the odd and disturbing, like Doll Child's recollection of dressing up a woman (girlfriend?) like a doll child and covering her in glue, describing her as being to nymphomania "like Elvis is to heart attacks or black blind men are to blues." Still, the tone is more often than not friendly and reassuring, if more conducive to solitary dark rooms than open sunny fields. And while some more variation from the acoustic folk-rock Damien Youth frequents might be welcome, it's not all stuck in that format, going into mildly gutsy Syd Barrett-ish full rock on occasion (particularly I Know Where Robyn Hitchcock Lives), and employing forceful piano at others.


Трекер:  [ 19-Сен-2012 15:43 ]

  

Скачать .torrent

Размер .torrent файла 15 KB


Размер: 364 MB
Хэш (hash) релиза: c9537198e447ffe86f2a3efb0b7ac933d2e0a39d

Еще никто не оставлял запись к записи скачать торрент Damien Youth - Phantoms Of Fables - 2005, FLAC . Будь первым!

!Обратная связь