Скачать через торрент музыку Unruly Child - Waiting For The Sun - бесплатно без регистрации torrent

Если у вас наблюдаются проблемы со скриншотами, переходом по ссылками, скачиванием торрентов - проблемы в блокировщике рекламы AdBlock. #хорошегоДня!


Статистика раздачи
Размер:  363 MB   |    Зарегистрирован:  4 года 10 месяцев   |    .torrent скачан:  10 раз   |   
Раздают:  1  
   
Загрузка...
 
Автор Сообщение

Galfimbul

avatar Galfimbul


Unruly Child - Waiting For The Sun

Жанр: AOR
Страна-производитель диска: Japan
Год издания: 1999 (1998)
Издатель (лейбл): Avalon/MTM Music
Номер по каталогу: MICY-1111
Страна: USA
Аудиокодек: APE (*.ape)
Тип рипа: image+.cue
Битрейт аудио: lossless
Продолжительность: 49:38
Источник (релизер): original CD
Наличие сканов в содержимом раздачи: да

Треклист:

01. Heart Run Free [0:04:37.67]
02. Rise Up [0:03:48.45]
03. Why Should I Care [0:04:18.18]
04. Forever [0:04:15.27]
05. Man Inside [0:05:15.63]
06. Do You Ever Think Of Me [0:03:56.70]
07. Still Believe [0:04:11.35]
08. To The Cross [0:04:23.02]
09. Fool Again [0:04:05.23]
10. Live In The Night [0:03:38.65]
11. Waiting For The Sun [0:03:05.28]
12. World Of Difference [0:04:01.12] (Japan bonus track)
Exact Audio Copy V1.0 beta 1 from 15. November 2010

Отчёт EAC об извлечении, выполненном 14. сентября 2012, 13:28

Unruly Child / Waiting For The Sun

Дисковод: Optiarc DVD RW AD-7261S Adapter: 1 ID: 1

Режим чтения : ДостоверностьИспользование точного потока : ДаОтключение кэша аудио : ДаИспользование указателей C2 : Нет

Коррекция смещения при чтении : 48Способность читать области Lead-in и Lead-out : НетЗаполнение пропущенных сэмплов тишиной : ДаУдаление блоков с тишиной в начале и конце : НетПри вычислениях CRC использовались нулевые сэмплы : ДаИнтерфейс : Встроенный Win32-интерфейс для Win NT/2000

Выходной формат : Monkey's Audio (без потерь)Выбранный битрейт : Normal Lossless CompressionКачество : ВысокийДобавление ID3-тега : ДаУтилита сжатия : C:\Program Files\Monkey's Audio\MAC.exe

TOC извлечённого CD

Трек | Старт | Длительность | Начальный сектор | Конечный сектор --------------------------------------------------------------------- 1 | 0:00.00 | 4:37.67 | 0 | 20841 2 | 4:37.67 | 3:48.45 | 20842 | 37986 3 | 8:26.37 | 4:18.18 | 37987 | 57354 4 | 12:44.55 | 4:15.27 | 57355 | 76506 5 | 17:00.07 | 5:15.63 | 76507 | 100194 6 | 22:15.70 | 3:56.70 | 100195 | 117964 7 | 26:12.65 | 4:11.35 | 117965 | 136824 8 | 30:24.25 | 4:23.02 | 136825 | 156551 9 | 34:47.27 | 4:05.23 | 156552 | 174949 10 | 38:52.50 | 3:38.65 | 174950 | 191364 11 | 42:31.40 | 3:05.28 | 191365 | 205267 12 | 45:36.68 | 4:01.12 | 205268 | 223354

Характеристики диапазона извлечения и сообщения об ошибках

Выбранный диапазон

Имя файла D:\Downloads\Unruly Child - Waiting For The Sun.wav

Пиковый уровень 99.9 % Скорость извлечения 0.3 X Качество диапазона 100.0 % CRC теста 0EC4F663 CRC копии 0EC4F663 Копирование... OK

Ошибок не произошло

Конец отчёта
Bruce Gowdy - Guitars, Keyboards, Bass
Kelly Hansen - Lead & Backing Vocals, Guitars
Jay Schellen - Drums, Percussion
Ricky Phillips - Bass


Трекер:  [ 19-Сен-2012 15:43 ]

  

Скачать .torrent

Размер .torrent файла 15 KB


Размер: 363 MB
Хэш (hash) релиза: 8eaa60d41b045e02b92360e563b889360b9c33cf

Торренты, похожие на Unruly Child - Waiting For The Sun - скачать торрент

Форум Название Автор Размер S L Добавлен
Rосk | Mеtаl | Аltеrnаtivе, Рunk, Indереndеnt (losslеss) ·· (AOR) Unruly Child - Waiting For The Sun - 1998, APE (image+.cue), lossless XmalcolmX 340015674324 MB 0 0 1324012934

08:22

16-Дек-11

Еще никто не оставлял запись к записи скачать торрент Unruly Child - Waiting For The Sun - . Будь первым!

!Обратная связь