..."/> ...">

Скачать через торрент музыку Rockin Bones - Welcome To The Forbidden Planet - 1994, APE бесплатно без регистрации torrent

Если у вас наблюдаются проблемы со скриншотами, переходом по ссылками, скачиванием торрентов - проблемы в блокировщике рекламы AdBlock. #хорошегоДня!


Статистика раздачи
Размер:  182 MB   |    Зарегистрирован:  5 лет 2 месяца   |    .torrent скачан:  73 раза   |   
Раздают:  1  
   
Загрузка...
 
Автор Сообщение

Umakiro

avatar Umakiro


Rockin' Bones / Welcome To The Forbidden Planet

Жанр: Psychobilly
Страна-производитель диска: Голландия
Год издания: 1994
Издатель (лейбл): KIX-4-U Records
Номер по каталогу: KIXCD
Страна: Франция
Аудиокодек: APE (*.ape)
Тип рипа: image+.cue
Битрейт аудио: lossless
Продолжительность: 29'29
Источник (релизер): Рип с оригинального cd из своей коллекции
Наличие сканов в содержимом раздачи: да
Треклист:

1. Freddy Krueger "The Final Nightmare"
2. Tremors
3. Vampirella
4. Zombie Boogie
5. Hot Rod Space
6. Potage Aux Légumes
7. I Go To The Go-Go
8. Hurlements
9. Bone-A-Billy Boogie
10.Erotic Robot
11.Welcome To The Forbidden Planet
Exact Audio Copy V0.99 prebeta 5 from 4. May 2009

Отчёт EAC об извлечении, выполненном 14. сентября 2012, 13:28

Rockin Bones / Welcome To The Forbidden Planet

Дисковод: ASUS DRW-24B3LT Adapter: 3 ID: 0

Режим чтения : ДостоверностьИспользование точного потока : ДаОтключение кэша аудио : ДаИспользование указателей C2 : Нет

Коррекция смещения при чтении : 6Способность читать области Lead-in и Lead-out : НетЗаполнение пропущенных сэмплов тишиной : ДаУдаление блоков с тишиной в начале и конце : НетПри вычислениях CRC использовались нулевые сэмплы : ДаИнтерфейс : Встроенный Win32-интерфейс для Win NT/2000

Выходной формат : Внутренние WAV-операцииФормат сэмплов : 44.100 Гц; 16 бит; стерео

TOC извлечённого CD

Трек | Старт | Длительность | Начальный сектор | Конечный сектор --------------------------------------------------------------------- 1 | 0:00.00 | 2:22.52 | 0 | 10701 2 | 2:22.52 | 3:18.10 | 10702 | 25561 3 | 5:40.62 | 3:19.00 | 25562 | 40486 4 | 8:59.62 | 3:02.53 | 40487 | 54189 5 | 12:02.40 | 1:51.00 | 54190 | 62514 6 | 13:53.40 | 2:52.25 | 62515 | 75439 7 | 16:45.65 | 1:51.25 | 75440 | 83789 8 | 18:37.15 | 2:45.57 | 83790 | 96221 9 | 21:22.72 | 2:14.70 | 96222 | 106341 10 | 23:37.67 | 2:37.40 | 106342 | 118156 11 | 26:15.32 | 3:14.33 | 118157 | 132739

Характеристики диапазона извлечения и сообщения об ошибках

Выбранный диапазон

Имя файла D:\Раздачи\Rockin' Bones-Welcome To The Forbidden Planet\Rockin Bones - Welcome To The Forbidden Planet.wav

Пиковый уровень 91.9 % Качество диапазона 100.0 % CRC теста B9476FE6 CRC копии B9476FE6 Копирование... OK

Ошибок не произошло

AccurateRip: сводка

Трек 1 нет в базе данныхТрек 2 нет в базе данныхТрек 3 нет в базе данныхТрек 4 нет в базе данныхТрек 5 нет в базе данныхТрек 6 нет в базе данныхТрек 7 нет в базе данныхТрек 8 нет в базе данныхТрек 9 нет в базе данныхТрек 10 нет в базе данныхТрек 11 нет в базе данных

Ни одного трека нет в базе AccurateRip

Конец отчёта


Трекер:  [ 14-Сен-2012 18:43 ]

  

Скачать .torrent

Размер .torrent файла 15 KB


Размер: 182 MB
Хэш (hash) релиза: 20ee58fc2c61149326af29cae51d76e731a7e6a0

Еще никто не оставлял запись к записи скачать торрент Rockin Bones - Welcome To The Forbidden Planet - 1994, APE . Будь первым!

!Обратная связь