Скачать через торрент музыку Hess - Living In Yesterday - 2012, APE бесплатно без регистрации torrent

Если у вас наблюдаются проблемы со скриншотами, переходом по ссылками, скачиванием торрентов - проблемы в блокировщике рекламы AdBlock. #хорошегоДня!


Статистика раздачи
Размер:  267 MB   |    Зарегистрирован:  5 лет 1 месяц   |    .torrent скачан:  44 раза   |   
Раздают:  1  
   
Загрузка...
 
Автор Сообщение

Umakiro

avatar Umakiro


Hess ~ Living In Yesterday
(ex-frontman Harem Scarem
)
Жанр: Melodic Hard Rock
Страна-производитель диска: Italy
Год издания: 2012
Издатель (лейбл): Frontiers Records
Номер по каталогу: FR CD 564
Страна: Canada
Аудиокодек: APE (*.ape)
Тип рипа: image+.cue
Битрейт аудио: lossless
Продолжительность: 37:14
Источник (релизер): Собственный рип с оригинального диска
Наличие сканов в содержимом раздачи: да
Треклист:
01. Living In Yesterday (04:28)
02. Reach For You (04:03)
03. Its Over (04:28)
04. Dont Leave Me (03:17)
05. What If (03:30)
06. Nothing Lasts Forever (03:23)
07. Falling Down (03:18)
08. I Live For You (04:28)
09. I Dont Wanna Want You (03:05)
10. Where To Run (03:10)
Exact Audio Copy V0.99 prebeta 5 from 4. May 2009

EAC extraction logfile from 31. August 2012, 13:57

Hess / Living In Yesterday

Used drive : HL-DT-STDVDRAM GH24LS70 Adapter: 1 ID: 1

Read mode : SecureUtilize accurate stream : YesDefeat audio cache : YesMake use of C2 pointers : No

Read offset correction : 667Overread into Lead-In and Lead-Out : NoFill up missing offset samples with silence : YesDelete leading and trailing silent blocks : NoNull samples used in CRC calculations : YesUsed interface : Installed external ASPI interface

Used output format : Internal WAV RoutinesSample format : 44.100 Hz; 16 Bit; Stereo

TOC of the extracted CD

Track | Start | Length | Start sector | End sector --------------------------------------------------------- 1 | 0:00.00 | 4:28.59 | 0 | 20158 2 | 4:28.59 | 4:03.14 | 20159 | 38397 3 | 8:31.73 | 4:28.72 | 38398 | 58569 4 | 13:00.70 | 3:17.59 | 58570 | 73403 5 | 16:18.54 | 3:30.03 | 73404 | 89156 6 | 19:48.57 | 3:23.19 | 89157 | 104400 7 | 23:12.01 | 3:18.29 | 104401 | 119279 8 | 26:30.30 | 4:28.21 | 119280 | 139400 9 | 30:58.51 | 3:05.20 | 139401 | 153295 10 | 34:03.71 | 3:10.73 | 153296 | 167618

Range status and errors

Selected range

Filename E:\Hess - Living In Yesterday (2012)\Living In Yesterday.wav

Peak level 100.0 % Range quality 100.0 % Copy CRC F189783A Copy OK

No errors occurred

End of status report
[b]Harry Hess: Lead Vocals, Keyboards, Backing Vocals, Additional Guitars


Трекер:  [ 14-Сен-2012 18:43 ]

  

Скачать .torrent

Размер .torrent файла 11 KB


Размер: 267 MB
Хэш (hash) релиза: 7d7817e5eea177b6ff618136d170f04c1423fc47

Еще никто не оставлял запись к записи скачать торрент Hess - Living In Yesterday - 2012, APE . Будь первым!

!Обратная связь