Скачать через торрент музыку Serge Bringolfs STRAVE - Vision - 1981, 2012 Soleil Zeuhl reissue; FLAC бесплатно без регистрации torrent

Если у вас наблюдаются проблемы со скриншотами, переходом по ссылками, скачиванием торрентов - проблемы в блокировщике рекламы AdBlock. #хорошегоДня!


Статистика раздачи
Размер:  257 MB   |    Зарегистрирован:  4 года 11 месяцев   |    .torrent скачан:  18 раз   |   
Раздают:  1  
   
Загрузка...
 
Автор Сообщение

Galfimbul

avatar Galfimbul


Serge Bringolf’s STRAVE — Vision (1981)

Жанр: Progressive rock/Zeuhl/Jazz rock/Fusion
Страна исполнителя: France
Год выпуска диска: 2012
Производитель дисков: France (Soleil Zeuhl)
Номер по каталогу: SZ 35
Аудио кодек: FLAC
Тип рипа: image+.cue
Битрейт аудио: lossless
Продолжительность: 00:35:47
Наличие сканов в содержимом раздачи: да
Источник: моя коллекция CD

Треклист:
01. Vision [10:12.827]
02. Plus I [02:04.307]
03. Plus II [07:53.840]
04. Plus III [02:26.267]
05. Ma-Ho. Peneta [13:10.467]

Line-up:
Serge Bringolf — drums, percussion, voice
[b]Mano Kuhn
— vocals
Alain Eckert — guitar
Claude Boussard — bass
Alain Lecointe — bass
Philippe Geiss — saxophone
Denis Petithory — trumpet
Bertrand Eck — French horn
Emmanuel Séjourné — vibraphone, marimba[/b]
REM GENRE "Progressive Rock/Zeuhl/Jazz Rock/Fusion"
REM DATE 1981
REM DISCID 38086305
REM COMMENT "ExactAudioCopy v0.99pb4"
PERFORMER "Serge Bringolf’s STRAVE"
TITLE "Vision"
FILE "Serge Bringolf's STRAVE - 1981 - Vision [2012, Soleil Zeuhl SZ35].wav" WAVE
  TRACK 01 AUDIO
    TITLE "Vision"
    PERFORMER "Serge Bringolf’s STRAVE"
    INDEX 01 00:00:00
  TRACK 02 AUDIO
    TITLE "Plus I"
    PERFORMER "Serge Bringolf’s STRAVE"
    INDEX 01 10:12:62
  TRACK 03 AUDIO
    TITLE "Plus II"
    PERFORMER "Serge Bringolf’s STRAVE"
    INDEX 01 12:17:10
  TRACK 04 AUDIO
    TITLE "Plus III"
    PERFORMER "Serge Bringolf’s STRAVE"
    INDEX 01 20:10:73
  TRACK 05 AUDIO
    TITLE "Ma-Ho. Penata"
    PERFORMER "Serge Bringolf’s STRAVE"
    INDEX 01 22:37:18
Exact Audio Copy V0.99 prebeta 4 from 23. January 2008

Отчёт EAC об извлечении, выполненном 13. сентября 2012, 18:50

Serge Bringolf's STRAVE / Vision

Дисковод: TSSTcorpCD/DVDW SH-S183A   Adapter: 4  ID: 1

Режим чтения                 : Достоверность
Использование точного потока : Да
Отключение кэша аудио        : Да
Использование указателей C2  : Нет

Коррекция смещения при чтении                     : 6
Способность читать области Lead-in и Lead-out     : Нет
Заполнение пропущенных сэмплов тишиной            : Да
Удаление блоков с тишиной в начале и конце        : Нет
При вычислениях CRC использовались нулевые сэмплы : Да
Интерфейс                                         : Встроенный Win32-интерфейс для Win NT/2000

Выходной формат : Внутренние WAV-операции
Формат сэмплов  : 44.100 Гц; 16 бит; стерео

TOC извлечённого CD

     Трек |   Старт  | Длительность | Начальный сектор | Конечный сектор
    ---------------------------------------------------------------------
       1  |  0:00.00 |   10:12.62   |           0      |      45961
       2  | 10:12.62 |    2:04.23   |       45962      |      55284
       3  | 12:17.10 |    7:53.63   |       55285      |      90822
       4  | 20:10.73 |    2:26.20   |       90823      |     101792
       5  | 22:37.18 |   13:10.35   |      101793      |     161077

Характеристики диапазона извлечения и сообщения об ошибках

Выбранный диапазон

     Имя файла D:\TEMP\Serge Bringolf's STRAVE - 1981 - Vision [2012, Soleil Zeuhl SZ35].wav

     Пиковый уровень 97.0 %
     Качество диапазона 100.0 %
     CRC теста 9D3F9E32
     CRC копии 9D3F9E32
     Копирование... OK

Ошибок не произошло

AccurateRip: сводка

Трек  1  нет в базе данных
Трек  2  нет в базе данных
Трек  3  нет в базе данных
Трек  4  нет в базе данных
Трек  5  нет в базе данных

Ни одного трека нет в базе AccurateRip

Конец отчёта


Трекер:  [ 14-Сен-2012 13:57 ]

  

Скачать .torrent

Размер .torrent файла 11 KB


Размер: 257 MB
Хэш (hash) релиза: 838743ed9944ab67ed2e5d03e89c0b7ef58b43e6

Еще никто не оставлял запись к записи скачать торрент Serge Bringolfs STRAVE - Vision - 1981, 2012 Soleil Zeuhl reissue; FLAC . Будь первым!

!Обратная связь