Скачать через торрент музыку I Nomadi - Interpretano Guccini - 1974, APE бесплатно без регистрации torrent

Если у вас наблюдаются проблемы со скриншотами, переходом по ссылками, скачиванием торрентов - проблемы в блокировщике рекламы AdBlock. #хорошегоДня!


Статистика раздачи
Размер:  198 MB   |    Зарегистрирован:  5 лет 2 месяца   |    .torrent скачан:  8 раз   |   
Раздают:  1  
   
Загрузка...
 
Автор Сообщение

Galfimbul

avatar Galfimbul


I Nomadi / Interpretano Guccini

Жанр: Progressive Rock / Folk
Страна-производитель диска: Italy
Год издания: 1974
Издатель (лейбл): EMI
Номер по каталогу: 077779404223
Страна: Italy
Аудиокодек: APE (*.ape)
Тип рипа: image+.cue
Битрейт аудио: lossless
Продолжительность: 00:38:05
Источник (релизер): Ослосеть
Наличие сканов в содержимом раздачи: да
Треклист:
01. Asia (7:20)
02. Il vecchio e il bambino (5:35)
03. Piccola citta (7:02)
04. Canzone della bambina portoghese (6:50)
05. L'isola non trovata (5:53)
06. La collina (5:00)
Exact Audio Copy V0.99 prebeta 5 from 4. May 2009

Отчёт EAC об извлечении, выполненном 8. марта 2010, 3:14

I Nomadi / I Nomadi Interpretano Guccini

Дисковод: Optiarc DVD RW AD-7200A Adapter: 1 ID: 0

Режим чтения : ДостоверностьИспользование точного потока : ДаОтключение кэша аудио : ДаИспользование указателей C2 : Нет

Коррекция смещения при чтении : 48Способность читать области Lead-in и Lead-out : НетЗаполнение пропущенных сэмплов тишиной : ДаУдаление блоков с тишиной в начале и конце : НетПри вычислениях CRC использовались нулевые сэмплы : ДаИнтерфейс : Встроенный Win32-интерфейс для Win NT/2000

Выходной формат : Внутренние WAV-операцииФормат сэмплов : 44.100 Гц; 16 бит; стерео

TOC извлечённого CD

Трек | Старт | Длительность | Начальный сектор | Конечный сектор --------------------------------------------------------------------- 1 | 0:00.32 | 7:26.08 | 32 | 33489 2 | 7:26.40 | 5:39.02 | 33490 | 58916 3 | 13:05.42 | 7:08.73 | 58917 | 91089 4 | 20:14.40 | 6:55.17 | 91090 | 122231 5 | 27:09.57 | 5:54.70 | 122232 | 148851 6 | 33:04.52 | 5:00.50 | 148852 | 171401

Характеристики диапазона извлечения и сообщения об ошибках

Выбранный диапазон

Имя файла D:\Nomadi\I Nomadi - I Nomadi Interpretano Guccini.wav

Пиковый уровень 89.1 % Качество диапазона 100.0 % CRC копии 8F2A1BBC Копирование... OK

Ошибок не произошло

AccurateRip: сводка

Трек 1 нет в базе данныхТрек 2 нет в базе данныхТрек 3 нет в базе данныхТрек 4 нет в базе данныхТрек 5 нет в базе данныхТрек 6 нет в базе данных

Ни одного трека нет в базе AccurateRip

Конец отчёта
-----------------------

DON'T MODIFY THIS FILE

-----------------------

PERFORMER: auCDtect Task Manager, ver. 1.5.1RC6 build 1.5.1.7Copyright (c) 2008-2010 y-soft. All rights reservedhttp://y-soft.org

ANALYZER: auCDtect: CD records authenticity detector, version 0.8.2Copyright (c) 2004 Oleg Berngardt. All rights reserved.Copyright (c) 2004 Alexander Djourik. All rights reserved.

FILE: I Nomadi - I Nomadi Interpretano Guccini.ape Size: -1 Hash: 3B7204CFB95486A2B15DFD4E9ADA97B4 Accuracy: -m0 Conclusion: CDDA 100% Signature: E3EDC6492B926F0B72A1FDEA6FC39A8C6F3198DC
Augusto Daolio - Voice
Beppe Carletti - Keyboards
Umberto Maggi - Bass
Gian Paolo Lancellotti - Drums
Christopher Patrick Dennis - Guitar and violin


Трекер:  [ 14-Сен-2012 13:56 ]

  

Скачать .torrent

Размер .torrent файла 16 KB


Размер: 198 MB
Хэш (hash) релиза: 82103b39955652b7171d62c71f2bac4d1f9d0022

Еще никто не оставлял запись к записи скачать торрент I Nomadi - Interpretano Guccini - 1974, APE . Будь первым!

!Обратная связь