Скачать через торрент музыку Wings Of Steel бесплатно без регистрации torrent

Если у вас наблюдаются проблемы со скриншотами, переходом по ссылками, скачиванием торрентов - проблемы в блокировщике рекламы AdBlock. #хорошегоДня!


Статистика раздачи
Размер:  727 MB   |    Зарегистрирован:  4 года 11 месяцев   |    .torrent скачан:  13 раз   |   
Раздают:  1  
   
Загрузка...
 
Автор Сообщение

Galfimbul

avatar Galfimbul


Wings Of Steel
Двухальбомная дискография малоизвестной, но очень интересной голландской группы.
Wings Of Steel - Homesick

Жанр: Neo/Heavy Prog
Год выпуска диска: 1992
Страна: Netherlands
Label: SI music
Catalog Nr.: SImply 19
Аудио кодек: FLAC
Тип рипа: image+.cue (test&copy)
Битрейт аудио: lossless
Источник (релизер): свой рип
Продолжительность: 54:15



Трэклист:

1. Trees of Stone 4:03
2. Living on a Dream 5:41
3. Too Many People 6:40
4. On Your Own 5:03
5. Crazy World 4:51
6. The Unborn Child 6:26
7. Narrow Minded 6:03
8. Make It Alone 3:21
9. Runnng on the Edge 4:44
10. Surrounded 7:09

Total Time: 54:15

Музыканты

- Peter Van De Ven (guitar, keyboards)
- Roland Kok (bass, keyboards)
- Jan Van Heumen (drums, vocals)
- Olando Van Swaay (bass, keyboards, vocals)
Exact Audio Copy V1.0 beta 3 from 29. August 2011

EAC extraction logfile from 11. September 2012, 11:01

Wings Of Steel / Homesick

Used drive : ASUS DRW-24B1LT Adapter: 4 ID: 0

Read mode : Secure
Utilize accurate stream : Yes
Defeat audio cache : Yes
Make use of C2 pointers : No

Read offset correction : 6
Overread into Lead-In and Lead-Out : No
Fill up missing offset samples with silence : Yes
Delete leading and trailing silent blocks : No
Null samples used in CRC calculations : Yes
Used interface : Native Win32 interface for Win NT & 2000

Used output format : User Defined Encoder
Selected bitrate : 1024 kBit/s
Quality : High
Add ID3 tag : Yes
Command line compressor : C:\Program Files (x86)\FLAC\flac.exe
Additional command line options : -6 -V -T "ARTIST=%artist%" -T "TITLE=%title%" -T "ALBUM=%albumtitle%" -T "DATE=%year%" -T "TRACKNUMBER=%tracknr%" -T "GENRE=%genre%" -T "COMMENT=%comment%" %source% -o %dest%

TOC of the extracted CD

Track | Start | Length | Start sector | End sector
---------------------------------------------------------
1 | 0:00.32 | 4:05.00 | 32 | 18406
2 | 4:05.32 | 5:42.25 | 18407 | 44081
3 | 9:47.57 | 6:43.00 | 44082 | 74306
4 | 16:30.57 | 5:02.53 | 74307 | 97009
5 | 21:33.35 | 4:52.35 | 97010 | 118944
6 | 26:25.70 | 6:28.00 | 118945 | 148044
7 | 32:53.70 | 6:05.00 | 148045 | 175419
8 | 38:58.70 | 3:20.55 | 175420 | 190474
9 | 42:19.50 | 4:46.20 | 190475 | 211944
10 | 47:05.70 | 7:09.05 | 211945 | 244124

Range status and errors

Selected range

Filename Y:\EAC\wurensh\Wings Of Steel\Wings Of Steel - Homesick.wav

Peak level 99.8 %
Extraction speed 3.4 X
Range quality 100.0 %
Test CRC 799E1933
Copy CRC 799E1933
Copy OK

No errors occurred

AccurateRip summary

Track 1 accurately ripped (confidence 3) [FF48C8EC] (AR v1)
Track 2 accurately ripped (confidence 3) [9A073FA7] (AR v1)
Track 3 accurately ripped (confidence 3) [0B8D2876] (AR v1)
Track 4 accurately ripped (confidence 3) [1D50D78A] (AR v1)
Track 5 accurately ripped (confidence 3) [19032916] (AR v1)
Track 6 accurately ripped (confidence 3) [11BE72FA] (AR v1)
Track 7 accurately ripped (confidence 3) [7ED02D67] (AR v1)
Track 8 accurately ripped (confidence 3) [9D8E71EE] (AR v1)
Track 9 accurately ripped (confidence 3) [28F0D9DF] (AR v1)
Track 10 accurately ripped (confidence 3) [7CF0A83E] (AR v1)

All tracks accurately ripped

End of status report
[spoiler=1995 - Face The Truth]
Wings Of Steel - Face The Truth

Жанр: Neo/Heavy Prog
Год выпуска диска: 1995
Страна: Netherlands
Label: SI music
Catalog Nr.: SI3064
Аудио кодек: FLAC
Тип рипа: image+.cue (test&copy)
Битрейт аудио: lossless
Источник (релизер): свой рип
Продолжительность: 44:40

Трэклист:

1. Stay Away 4:58
2. Into My World 5:19
3. Too Far Away 4:55
4. If I'd Say 3:23
5. Heaven 5:13
6. It's so Cold 4:11
7. Still Together 4:07
8. The King's Blues 4:24
9. I Can't Reach You 8:06

Total Time: 44:40

Музыканты

- Peter Van De Ven (guitar)
- Jan Van Heumen (drums, vocals)
- Olando Van Swaay (bass, keyboards, vocals)
Exact Audio Copy V1.0 beta 3 from 29. August 2011

EAC extraction logfile from 10. September 2012, 20:38

Wings Of Steel / Face The Truth

Used drive : ASUS DRW-24B1LT Adapter: 4 ID: 0

Read mode : Secure
Utilize accurate stream : Yes
Defeat audio cache : Yes
Make use of C2 pointers : No

Read offset correction : 6
Overread into Lead-In and Lead-Out : No
Fill up missing offset samples with silence : Yes
Delete leading and trailing silent blocks : No
Null samples used in CRC calculations : Yes
Used interface : Native Win32 interface for Win NT & 2000

Used output format : User Defined Encoder
Selected bitrate : 1024 kBit/s
Quality : High
Add ID3 tag : Yes
Command line compressor : C:\Program Files (x86)\FLAC\flac.exe
Additional command line options : -6 -V -T "ARTIST=%artist%" -T "TITLE=%title%" -T "ALBUM=%albumtitle%" -T "DATE=%year%" -T "TRACKNUMBER=%tracknr%" -T "GENRE=%genre%" -T "COMMENT=%comment%" %source% -o %dest%

TOC of the extracted CD

Track | Start | Length | Start sector | End sector
---------------------------------------------------------
1 | 0:00.00 | 4:58.10 | 0 | 22359
2 | 4:58.10 | 5:16.70 | 22360 | 46129
3 | 10:15.05 | 4:57.47 | 46130 | 68451
4 | 15:12.52 | 3:23.40 | 68452 | 83716
5 | 18:36.17 | 5:11.25 | 83717 | 107066
6 | 23:47.42 | 4:14.60 | 107067 | 126176
7 | 28:02.27 | 4:04.45 | 126177 | 144521
8 | 32:06.72 | 4:26.23 | 144522 | 164494
9 | 36:33.20 | 8:06.22 | 164495 | 200966

Range status and errors

Selected range

Filename Y:\EAC\wurensh\Wings Of Steel\Wings Of Steel - Face The Truth.wav

Peak level 100.0 %
Extraction speed 8.0 X
Range quality 99.9 %
Test CRC 3E76B8CC
Copy CRC 3E76B8CC
Copy OK

No errors occurred

AccurateRip summary

Track 1 not present in database
Track 2 not present in database
Track 3 not present in database
Track 4 not present in database
Track 5 not present in database
Track 6 not present in database
Track 7 not present in database
Track 8 not present in database
Track 9 not present in database

None of the tracks are present in the AccurateRip database

End of status report
[CUETools log; Date: 11.09.2012 22:18:09; Version: 2.1.4]
[CTDB TOCID: HJDEryh2pYIAH2zRThxhxrHswts-] found.
Track | CTDB Status
1 | (2/2) Accurately ripped
2 | (2/2) Accurately ripped
3 | (2/2) Accurately ripped
4 | (2/2) Accurately ripped
5 | (2/2) Accurately ripped
6 | (2/2) Accurately ripped
7 | (2/2) Accurately ripped
8 | (2/2) Accurately ripped
9 | (2/2) Accurately ripped
[AccurateRip ID: 000eb52f-006b8916-740a7709] disk not present in database.

Track Peak [ CRC32 ] [W/O NULL] [ LOG ]
-- 100,0 [3E76B8CC] [A4F991C7] CRC32
01 100,0 [3433A9B9] [6BBFE60F]
02 100,0 [0E6641E9] [5BDD5FEE]
03 86,2 [00673D26] [28D0CF48]
04 84,9 [031A0D39] [B3A41C7B]
05 100,0 [9EF223F4] [FF36D5DF]
06 100,0 [DC2CB837] [AC7696A6]
07 77,7 [15589D45] [F7AB840B]
08 100,0 [C346996A] [5A4C072C]
09 100,0 [617583D0] [AE04094A]


Трекер:  [ 14-Сен-2012 13:56 ]

  

Скачать .torrent

Размер .torrent файла 16 KB


Размер: 727 MB
Хэш (hash) релиза: 18bcf059731b458f8bfece40915a4a9e50f37904

Еще никто не оставлял запись к записи скачать торрент Wings Of Steel . Будь первым!

!Обратная связь