Скачать через торрент музыку Wishbone Ash - Argus Then Again Live - 2008, FLAC бесплатно без регистрации torrent

Если у вас наблюдаются проблемы со скриншотами, переходом по ссылками, скачиванием торрентов - проблемы в блокировщике рекламы AdBlock. #хорошегоДня!


Статистика раздачи
Размер:  554 MB   |    Зарегистрирован:  4 года 11 месяцев   |    .torrent скачан:  21 раз   |   
Раздают:  1  
   
Загрузка...
 
Автор Сообщение

Galfimbul

avatar Galfimbul


Wishbone Ash / Argus ''Then Again'' Live

Страна исполнителя: Torquay, Devon, United Kingdom
Жанр: Rock, Hard Rock, Progressive Rock
Страна-производитель диска: England
Год издания: 2008
Издатель (лейбл): Talking Elephant Records
Номер по каталогу: TECD133

Аудиокодек: FLAC (*.flac)
Тип рипа: image+.cue
Битрейт аудио: lossless
Продолжительность: 1:13:42
Источник (релизер): Собственный рип
Наличие сканов в содержимом раздачи: да

Треклист:

1 Intro: George Taylor Morris
2 Real Guitars Have Wings
3 Mountainside
4 Growing Up
5 Time Was
6 Sometime World
7 Blowin' Free
8 The King Will Come
9 Leaf And Stream
10 Warrior
11 Throw Down The Sword
12 Way Of The World
Exact Audio Copy V1.0 beta 1 from 15. November 2010

EAC extraction logfile from 12. September 2012, 18:39

Wishbone Ash / Argus - "Then Again" Live

Used drive : Optiarc DVD RW AD-7263S Adapter: 3 ID: 0

Read mode : SecureUtilize accurate stream : YesDefeat audio cache : YesMake use of C2 pointers : No

Read offset correction : 48Overread into Lead-In and Lead-Out : NoFill up missing offset samples with silence : YesDelete leading and trailing silent blocks : NoNull samples used in CRC calculations : YesUsed interface : Native Win32 interface for Win NT & 2000

Used output format : User Defined EncoderSelected bitrate : 32 kBit/sQuality : HighAdd ID3 tag : NoCommand line compressor : C:\Program Files\Exact Audio Copy\Flac\flac.exeAdditional command line options : -T "DATE=%y" -T "GENRE=%m" -8 -V %s

TOC of the extracted CD

Track | Start | Length | Start sector | End sector --------------------------------------------------------- 1 | 0:00.00 | 1:04.23 | 0 | 4822 2 | 1:04.23 | 4:02.26 | 4823 | 22998 3 | 5:06.49 | 5:59.65 | 22999 | 49988 4 | 11:06.39 | 4:58.26 | 49989 | 72364 5 | 16:04.65 | 9:56.69 | 72365 | 117133 6 | 26:01.59 | 6:40.57 | 117134 | 147190 7 | 32:42.41 | 5:25.29 | 147191 | 171594 8 | 38:07.70 | 7:47.47 | 171595 | 206666 9 | 45:55.42 | 4:23.59 | 206667 | 226450 10 | 50:19.26 | 5:41.46 | 226451 | 252071 11 | 56:00.72 | 5:54.55 | 252072 | 278676 12 | 61:55.52 | 11:46.43 | 278677 | 331669

Range status and errors

Selected range

Filename C:\Documents and Settings\maxim\Мои документы\Мои рисунки\Wishbone Ash - Argus - ''Then Again'' Live.wav

Peak level 99.9 % Extraction speed 0.7 X Range quality 100.0 % Test CRC 5E8287FB Copy CRC 5E8287FB Copy OK

No errors occurred

AccurateRip summary

Track 1 accurately ripped (confidence 9) [E3467397]Track 2 accurately ripped (confidence 9) [336A7617]Track 3 accurately ripped (confidence 9) [C8D24B4B]Track 4 accurately ripped (confidence 9) [41D89595]Track 5 accurately ripped (confidence 9) [F6643DCD]Track 6 accurately ripped (confidence 9) [38AE8F73]Track 7 accurately ripped (confidence 9) [BED9006B]Track 8 accurately ripped (confidence 9) [9EBB2995]Track 9 accurately ripped (confidence 9) [A476B948]Track 10 accurately ripped (confidence 9) [44DCB3E1]Track 11 accurately ripped (confidence 9) [23FF67C2]Track 12 accurately ripped (confidence 9) [1F2528C5]

All tracks accurately ripped

End of status report

==== Log checksum FAC6F58CB6ADDB71B9A0D1DC0E00BAD9A0F9608402CA818B820B758A0934E84D ====
Recorded live on May 6, 2008 before a studio audience at the XM Satellite Radio Studios in Washington DC.
Bass, Vocals – Bob Skeat
Drums – Joe Crabtree
Guitar, Vocals – Andy Powell, Jyrki Manninen


Трекер:  [ 14-Сен-2012 13:46 ]

  

Скачать .torrent

Размер .torrent файла 12 KB


Размер: 554 MB
Хэш (hash) релиза: c08183a8b53bdb76337aef1787bdb0e382790e9d

Еще никто не оставлял запись к записи скачать торрент Wishbone Ash - Argus Then Again Live - 2008, FLAC . Будь первым!

!Обратная связь