Скачать через торрент музыку Huey Lewis And The News - Collection, 6 Albums - 1980-1994, FLAC бесплатно без регистрации torrent

Если у вас наблюдаются проблемы со скриншотами, переходом по ссылками, скачиванием торрентов - проблемы в блокировщике рекламы AdBlock. #хорошегоДня!


Статистика раздачи
Размер:  2.14 GB   |    Зарегистрирован:  4 года 11 месяцев   |    .torrent скачан:  21 раз   |   
Раздают:  1  
   
Загрузка...
 
Автор Сообщение

Galfimbul

avatar Galfimbul


Huey Lewis And The News – Collection, 6 Albums



Жанр: Rock, Pop-Rock
Год издания: 1980-1994
Издатель (лейбл): Chrysalis, EMI, Elektra
Страна исполнителя: USA
Аудиокодек: FLAC (*.flac)
Тип рипа: image+.cue
Битрейт аудио: lossless
Rip by flac jacket
Наличие сканов в содержимом раздачи: да
Издатель (лейбл): Chrysalis Records
Номер по каталогу: F2 21292
Продолжительность: 31:32

Треклист:
01. Some Of My Lies Are True (Sooner Or Later) (3:24)
02. Don't Make Me Do It (2:50)
03. Stop Trying (3:33)
04. Now Here's You (4:15)
05. I Want You (2:49)
06. Don't Ever Tell Me That You Love Me (2:54)
07. Hearts (2:52)
08. Trouble In Paradise (3:13)
09. Who Cares? (3:51)
10. If You Really Love Me You'll Let Me (1:53)
Exact Audio Copy V1.0 beta 2 from 29. April 2011

EAC extraction logfile from 26. August 2012, 19:33

Huey Lewis And The News / Huey Lewis And The News

Used drive : HL-DT-STDVDRAM GH60N Adapter: 0 ID: 1

Read mode : SecureUtilize accurate stream : YesDefeat audio cache : YesMake use of C2 pointers : No

Read offset correction : 667Overread into Lead-In and Lead-Out : NoFill up missing offset samples with silence : YesDelete leading and trailing silent blocks : NoNull samples used in CRC calculations : YesUsed interface : Native Win32 interface for Win NT & 2000

Used output format : User Defined EncoderSelected bitrate : 1024 kBit/sQuality : HighAdd ID3 tag : NoCommand line compressor : C:\Program Files (x86)\Exact Audio Copy\Flac\flac.exeAdditional command line options : -V -8 -T "artist=%albumartist%" -T "title=%title%" -T "album=%albumtitle%" -T "date=%year%" -T "genre=%genre%" -T "tracknumber=%tracknr%" %source%

TOC of the extracted CD

Track | Start | Length | Start sector | End sector --------------------------------------------------------- 1 | 0:00.00 | 3:23.42 | 0 | 15266 2 | 3:23.42 | 2:50.15 | 15267 | 28031 3 | 6:13.57 | 3:32.48 | 28032 | 43979 4 | 9:46.30 | 4:14.57 | 43980 | 63086 5 | 14:01.12 | 2:48.38 | 63087 | 75724 6 | 16:49.50 | 2:53.70 | 75725 | 88769 7 | 19:43.45 | 2:51.45 | 88770 | 101639 8 | 22:35.15 | 3:12.72 | 101640 | 116111 9 | 25:48.12 | 3:51.13 | 116112 | 133449 10 | 29:39.25 | 1:52.50 | 133450 | 141899

Range status and errors

Selected range

Filename C:\EAC\Huey Lewis And The News - (1980) Huey Lewis And The News\Huey Lewis And The News - Huey Lewis And The News.wav

Peak level 100.0 % Extraction speed 1.5 X Range quality 100.0 % Test CRC 5D92B579 Copy CRC 5D92B579 Copy OK

No errors occurred

AccurateRip summary

Track 1 not present in databaseTrack 2 not present in databaseTrack 3 not present in databaseTrack 4 not present in databaseTrack 5 not present in databaseTrack 6 not present in databaseTrack 7 not present in databaseTrack 8 not present in databaseTrack 9 not present in databaseTrack 10 not present in database

None of the tracks are present in the AccurateRip database

End of status report

==== Log checksum 24C89CC613C711CE24195B6D58CF0EAEE166885017A5EC97E29166A9656ABA1A ====
REM GENRE RockREM DATE 1980REM DISCID 7A07640AREM COMMENT "ExactAudioCopy v1.0b2"PERFORMER "Huey Lewis And The News"TITLE "Huey Lewis And The News"FILE "Huey Lewis And The News - Huey Lewis And The News.flac" WAVE TRACK 01 AUDIO TITLE "Some Of My Lies Are True (Sooner Or Later)" PERFORMER "Huey Lewis And The News" INDEX 01 00:00:00 TRACK 02 AUDIO TITLE "Don't Make Me Do It" PERFORMER "Huey Lewis And The News" INDEX 00 03:21:35 INDEX 01 03:23:42 TRACK 03 AUDIO TITLE "Stop Trying" PERFORMER "Huey Lewis And The News" INDEX 01 06:13:57 TRACK 04 AUDIO TITLE "Now Here's You" PERFORMER "Huey Lewis And The News" INDEX 00 09:44:40 INDEX 01 09:46:30 TRACK 05 AUDIO TITLE "I Want You" PERFORMER "Huey Lewis And The News" INDEX 00 13:59:42 INDEX 01 14:01:12 TRACK 06 AUDIO TITLE "Don't Ever Tell Me That You Love Me" PERFORMER "Huey Lewis And The News" INDEX 00 16:48:40 INDEX 01 16:49:50 TRACK 07 AUDIO TITLE "Hearts" PERFORMER "Huey Lewis And The News" INDEX 00 19:42:35 INDEX 01 19:43:45 TRACK 08 AUDIO TITLE "Trouble In Paradise" PERFORMER "Huey Lewis And The News" INDEX 00 22:33:12 INDEX 01 22:35:15 TRACK 09 AUDIO TITLE "Who Cares?" PERFORMER "Huey Lewis And The News" INDEX 00 25:46:50 INDEX 01 25:48:12 TRACK 10 AUDIO TITLE "If You Really Love Me You'll Let Me" PERFORMER "Huey Lewis And The News" INDEX 00 29:37:20 INDEX 01 29:39:25
[CUETools log; Date: 12.09.2012 17:44:38; Version: 2.0.9][CTDB TOCID: RN2aSmxzo6fAAOqy9IShwr1fcIM-] disk not present in database.[AccurateRip ID: 000c541b-006231b6-7a07640a] disk not present in database.

Track Peak [ CRC32 ] [W/O NULL] [ LOG ] -- 100,0 [5D92B579] [93DB89C9] CRC32 01 100,0 [E75EED34] [612081B0] 02 81,8 [49CF1A24] [93736098] 03 69,4 [5E8DFD75] [FED73152] 04 100,0 [80926EE9] [85D78BEF] 05 83,5 [0EECA63D] [F76C52E9] 06 100,0 [148318A8] [5D091A12] 07 99,8 [97C7C028] [98828DAB] 08 91,3 [68236CF4] [B43BE166] 09 100,0 [92F33407] [07AA9393] 10 99,2 [9F5BD9F3] [BBD39E34]
Издатель (лейбл): Chrysalis Records
Номер по каталогу: F2 21340
Продолжительность: 34:16

Треклист:
01. Change Of Heart (3:45)
02. Tell Me A Little Lie (3:44)
03. Giving It All Up For Love (3:14)
04. Hope You Love Me Like You Say You Do (3:45)
05. Workin For A Livin (2:39)
06. Do You Believe In Love (3:29)
07. Is It Me (3:05)
08. Whatever Happened To True Love (3:16)
09. The Only One (4:49)
10. Buzz Buzz Buzz (2:31)
Exact Audio Copy V1.0 beta 2 from 29. April 2011

EAC extraction logfile from 26. August 2012, 20:31

Huey Lewis And The News / Picture This

Used drive : HL-DT-STDVDRAM GH60N Adapter: 0 ID: 1

Read mode : SecureUtilize accurate stream : YesDefeat audio cache : YesMake use of C2 pointers : No

Read offset correction : 667Overread into Lead-In and Lead-Out : NoFill up missing offset samples with silence : YesDelete leading and trailing silent blocks : NoNull samples used in CRC calculations : YesUsed interface : Native Win32 interface for Win NT & 2000

Used output format : User Defined EncoderSelected bitrate : 1024 kBit/sQuality : HighAdd ID3 tag : NoCommand line compressor : C:\Program Files (x86)\Exact Audio Copy\Flac\flac.exeAdditional command line options : -V -8 -T "artist=%albumartist%" -T "title=%title%" -T "album=%albumtitle%" -T "date=%year%" -T "genre=%genre%" -T "tracknumber=%tracknr%" %source%

TOC of the extracted CD

Track | Start | Length | Start sector | End sector --------------------------------------------------------- 1 | 0:00.00 | 3:44.55 | 0 | 16854 2 | 3:44.55 | 3:43.40 | 16855 | 33619 3 | 7:28.20 | 3:14.07 | 33620 | 48176 4 | 10:42.27 | 3:45.00 | 48177 | 65051 5 | 14:27.27 | 2:38.40 | 65052 | 76941 6 | 17:05.67 | 3:29.00 | 76942 | 92616 7 | 20:34.67 | 3:04.53 | 92617 | 106469 8 | 23:39.45 | 3:16.20 | 106470 | 121189 9 | 26:55.65 | 4:48.70 | 121190 | 142859 10 | 31:44.60 | 2:31.07 | 142860 | 154191

Range status and errors

Selected range

Filename C:\EAC\Huey Lewis And The News - (1982) Picture This\Huey Lewis And The News - Picture This.wav

Peak level 100.0 % Extraction speed 1.6 X Range quality 100.0 % Test CRC 90CF9B25 Copy CRC 90CF9B25 Copy OK

No errors occurred

AccurateRip summary

Track 1 accurately ripped (confidence 16) [11067970] (AR v1)Track 2 accurately ripped (confidence 16) [C10F13DA] (AR v1)Track 3 accurately ripped (confidence 16) [29A3B3CB] (AR v1)Track 4 accurately ripped (confidence 16) [030CE7B1] (AR v1)Track 5 accurately ripped (confidence 16) [1E59B342] (AR v1)Track 6 accurately ripped (confidence 16) [D2201409] (AR v1)Track 7 accurately ripped (confidence 15) [F71AC6D5] (AR v1)Track 8 accurately ripped (confidence 15) [D4BFCF75] (AR v1)Track 9 accurately ripped (confidence 16) [EC46EBCF] (AR v1)Track 10 accurately ripped (confidence 16) [A68B5A40] (AR v1)

All tracks accurately ripped

End of status report

==== Log checksum E86DC6438B0E6C445EB211CC28B1F35B54B6F5C7D55FB82AEA12402DAEAF926F ====
REM GENRE RockREM DATE 1982REM DISCID 7708070AREM COMMENT "ExactAudioCopy v1.0b2"PERFORMER "Huey Lewis And The News"TITLE "Picture This"FILE "Huey Lewis And The News - Picture This.flac" WAVE TRACK 01 AUDIO TITLE "Change Of Heart" PERFORMER "Huey Lewis And The News" INDEX 01 00:00:00 TRACK 02 AUDIO TITLE "Tell Me A Little Lie" PERFORMER "Huey Lewis And The News" INDEX 00 03:43:52 INDEX 01 03:44:55 TRACK 03 AUDIO TITLE "Giving It All Up For Love" PERFORMER "Huey Lewis And The News" INDEX 00 07:27:20 INDEX 01 07:28:20 TRACK 04 AUDIO TITLE "Hope You Love Me Like You Say You Do" PERFORMER "Huey Lewis And The News" INDEX 00 10:41:00 INDEX 01 10:42:27 TRACK 05 AUDIO TITLE "Workin For A Livin" PERFORMER "Huey Lewis And The News" INDEX 01 14:27:27 TRACK 06 AUDIO TITLE "Do You Believe In Love" PERFORMER "Huey Lewis And The News" INDEX 01 17:05:67 TRACK 07 AUDIO TITLE "Is It Me" PERFORMER "Huey Lewis And The News" INDEX 01 20:34:67 TRACK 08 AUDIO TITLE "Whatever Happened To True Love" PERFORMER "Huey Lewis And The News" INDEX 01 23:39:45 TRACK 09 AUDIO TITLE "The Only One" PERFORMER "Huey Lewis And The News" INDEX 01 26:55:65 TRACK 10 AUDIO TITLE "Buzz Buzz Buzz" PERFORMER "Huey Lewis And The News" INDEX 01 31:44:60
[CUETools log; Date: 11.09.2012 6:46:34; Version: 2.0.9][CTDB TOCID: SxcT0C2YeCAQNY7IWwNfTkeSQ1I-] found. [ CTDBID ] Status [d34f137b] (1/1) Accurately ripped[AccurateRip ID: 000d1777-0068367c-7708070a] found.Track [ CRC ] Status 01 [11067970] (16/51) Accurately ripped 02 [c10f13da] (16/51) Accurately ripped 03 [29a3b3cb] (16/51) Accurately ripped 04 [030ce7b1] (16/51) Accurately ripped 05 [1e59b342] (16/51) Accurately ripped 06 [d2201409] (16/51) Accurately ripped 07 [f71ac6d5] (15/49) Accurately ripped 08 [d4bfcf75] (15/50) Accurately ripped 09 [ec46ebcf] (16/51) Accurately ripped 10 [a68b5a40] (16/51) Accurately rippedOffsetted by -664: 01 [2b8a7098] (02/51) Accurately ripped 02 [a4c86f5a] (02/51) Accurately ripped 03 [df5eae63] (02/51) Accurately ripped 04 [6afd8a79] (02/51) Accurately ripped 05 [cfa115f2] (02/51) Accurately ripped 06 [fbf1df51] (02/51) Accurately ripped 07 [446d51dd] (02/49) Accurately ripped 08 [fa11eda5] (02/50) Accurately ripped 09 [04e16b87] (02/51) Accurately ripped 10 [919da3b0] (02/51) Accurately rippedOffsetted by 1293: 01 [04b79eb5] (13/51) Accurately ripped 02 [00fce14a] (13/51) Accurately ripped 03 [b1c82dbe] (13/51) Accurately ripped 04 [efc81fea] (13/51) Accurately ripped 05 [c2d2eed8] (13/51) Accurately ripped 06 [520a3f52] (13/51) Accurately ripped 07 [117fd316] (13/49) Accurately ripped 08 [201f847b] (13/50) Accurately ripped 09 [5632bde6] (13/51) Accurately ripped 10 [55da3fae] (13/51) Accurately rippedOffsetted by 1653: 01 [3d47f9dd] (18/51) Accurately ripped 02 [22d2fcca] (18/51) Accurately ripped 03 [7a6f2456] (18/51) Accurately ripped 04 [a4ec36b2] (18/51) Accurately ripped 05 [315c0988] (18/51) Accurately ripped 06 [ad7cbe9a] (18/51) Accurately ripped 07 [a6ce721e] (17/49) Accurately ripped 08 [62401aab] (18/50) Accurately ripped 09 [1a98099e] (18/51) Accurately ripped 10 [425b211e] (18/51) Accurately ripped

Track Peak [ CRC32 ] [W/O NULL] [ LOG ] -- 100,0 [90CF9B25] [6A58423B] CRC32 01 95,4 [D82CCC37] [79F109D7] 02 85,6 [79F247BE] [B7418E7B] 03 100,0 [8EC3218E] [2778F391] 04 98,0 [BB575EF9] [D157AD35] 05 96,9 [7A070199] [544B6C98] 06 100,0 [EFE49BBD] [18AAE859] 07 77,0 [4DDB2896] [B7392B3A] 08 89,4 [1B2BFB8F] [503622EF] 09 100,0 [61572348] [4EE36C74] 10 80,4 [59B4D8B1] [7E86AFF3]
Издатель (лейбл): Chrysalis Records
Номер по каталогу: VK 41412
Продолжительность: 37:45

Треклист:
01. The Heart Of Rock & Roll (5:05)
02. Heart And Soul (4:13)
03. Bad Is Bad (3:48)
04. I Want A New Drug (4:46)
05. Walking On A Thin Line (5:11)
06. Finally Found A Home (3:44)
07. If This Is It (3:54)
08. You Crack Me Up (3:43)
09. Honky Tonk Blues (3:21)
Exact Audio Copy V1.0 beta 2 from 29. April 2011

EAC extraction logfile from 26. August 2012, 21:21

Huey Lewis And The News / Sports

Used drive : HL-DT-STDVDRAM GH60N Adapter: 0 ID: 1

Read mode : SecureUtilize accurate stream : YesDefeat audio cache : YesMake use of C2 pointers : No

Read offset correction : 667Overread into Lead-In and Lead-Out : NoFill up missing offset samples with silence : YesDelete leading and trailing silent blocks : NoNull samples used in CRC calculations : YesUsed interface : Native Win32 interface for Win NT & 2000

Used output format : User Defined EncoderSelected bitrate : 1024 kBit/sQuality : HighAdd ID3 tag : NoCommand line compressor : C:\Program Files (x86)\Exact Audio Copy\Flac\flac.exeAdditional command line options : -V -8 -T "artist=%albumartist%" -T "title=%title%" -T "album=%albumtitle%" -T "date=%year%" -T "genre=%genre%" -T "tracknumber=%tracknr%" %source%

TOC of the extracted CD

Track | Start | Length | Start sector | End sector --------------------------------------------------------- 1 | 0:00.00 | 5:05.17 | 0 | 22891 2 | 5:05.17 | 4:12.38 | 22892 | 41829 3 | 9:17.55 | 3:47.62 | 41830 | 58916 4 | 13:05.42 | 4:45.50 | 58917 | 80341 5 | 17:51.17 | 5:11.20 | 80342 | 103686 6 | 23:02.37 | 3:43.65 | 103687 | 120476 7 | 26:46.27 | 3:54.08 | 120477 | 138034 8 | 30:40.35 | 3:43.32 | 138035 | 154791 9 | 34:23.67 | 3:21.18 | 154792 | 169884

Range status and errors

Selected range

Filename C:\EAC\Huey Lewis And The News - (1983) Sports\Huey Lewis And The News - Sports.wav

Peak level 100.0 % Extraction speed 1.7 X Range quality 100.0 % Test CRC D266BCEE Copy CRC D266BCEE Copy OK

No errors occurred

AccurateRip summary

Track 1 accurately ripped (confidence 4) [17EA7DEF] (AR v2)Track 2 accurately ripped (confidence 4) [C1DC5507] (AR v2)Track 3 accurately ripped (confidence 4) [332D0FF3] (AR v2)Track 4 accurately ripped (confidence 4) [5903EA62] (AR v2)Track 5 accurately ripped (confidence 4) [A90F22F0] (AR v2)Track 6 accurately ripped (confidence 4) [F5D84378] (AR v2)Track 7 accurately ripped (confidence 4) [76BEFA31] (AR v2)Track 8 accurately ripped (confidence 4) [14E85BFB] (AR v2)Track 9 accurately ripped (confidence 4) [14038842] (AR v2)

All tracks accurately ripped

End of status report

==== Log checksum A956B535D17088B99E560986A6B1C51CCE01F976B94C5320662F0080574499B1 ====
REM GENRE RockREM DATE 1983REM DISCID 7B08D909REM COMMENT "ExactAudioCopy v1.0b2"PERFORMER "Huey Lewis And The News"TITLE "Sports"FILE "Huey Lewis And The News - Sports.flac" WAVE TRACK 01 AUDIO TITLE "The Heart Of Rock & Roll" PERFORMER "Huey Lewis And The News" INDEX 01 00:00:00 TRACK 02 AUDIO TITLE "Heart And Soul" PERFORMER "Huey Lewis And The News" INDEX 01 05:05:17 TRACK 03 AUDIO TITLE "Bad Is Bad" PERFORMER "Huey Lewis And The News" INDEX 01 09:17:55 TRACK 04 AUDIO TITLE "I Want A New Drug" PERFORMER "Huey Lewis And The News" INDEX 01 13:05:42 TRACK 05 AUDIO TITLE "Walking On A Thin Line" PERFORMER "Huey Lewis And The News" INDEX 01 17:51:17 TRACK 06 AUDIO TITLE "Finally Found A Home" PERFORMER "Huey Lewis And The News" INDEX 01 23:02:37 TRACK 07 AUDIO TITLE "If This Is It" PERFORMER "Huey Lewis And The News" INDEX 01 26:46:27 TRACK 08 AUDIO TITLE "You Crack Me Up" PERFORMER "Huey Lewis And The News" INDEX 01 30:40:35 TRACK 09 AUDIO TITLE "Honky Tonk Blues" PERFORMER "Huey Lewis And The News" INDEX 01 34:23:67
[CUETools log; Date: 12.09.2012 19:59:28; Version: 2.0.9][CTDB TOCID: 0aOHK1_Zds52IOFT7_hceqFl15k-] found. [ CTDBID ] Status [4e15c046] (15/15) Accurately ripped[AccurateRip ID: 000d97e9-0062bae4-7b08d909] found.Track [ CRC ] Status 01 [135745a7] (044/137) Accurately ripped 02 [4107ea20] (044/138) Accurately ripped 03 [b083b068] (044/136) Accurately ripped 04 [24f4db02] (044/138) Accurately ripped 05 [cdef6017] (044/138) Accurately ripped 06 [78902a78] (044/137) Accurately ripped 07 [52015f1b] (043/137) Accurately ripped 08 [3202facf] (043/136) Accurately ripped 09 [c43101f9] (043/134) Accurately rippedOffsetted by -941: 01 [c35ae23b] (002/137) Accurately ripped 02 [d0748ad1] (002/138) Accurately ripped 03 [851265cd] (002/136) Accurately ripped 04 [f21d2976] (002/138) Accurately ripped 05 [5cd9d787] (002/138) Accurately ripped 06 [5b96ce4a] (002/137) Accurately ripped 07 [4787eb46] (002/137) Accurately ripped 08 [c4b4161f] (002/136) Accurately ripped 09 [24c62d12] (002/134) Accurately rippedOffsetted by 6: 01 [8aa6b661] (008/137) Accurately ripped 02 [df2cd6ea] (008/138) Accurately ripped 03 [a1d8ac77] (008/136) Accurately ripped 04 [4819d540] (008/138) Accurately ripped 05 [d3949349] (008/138) Accurately ripped 06 [c9ef443f] (008/137) Accurately ripped 07 [16483692] (008/137) Accurately ripped 08 [196b7090] (008/136) Accurately ripped 09 [ea650ff1] (007/134) Accurately rippedOffsetted by 161: 01 [c57f9628] (020/137) Accurately ripped 02 [898029f5] (020/138) Accurately ripped 03 [00de1937] (020/136) Accurately ripped 04 [3cc2c5cf] (020/138) Accurately ripped 05 [7e81d35d] (020/138) Accurately ripped 06 [b9e9bb38] (020/137) Accurately ripped 07 [23f3dff2] (020/137) Accurately ripped 08 [23abe387] (019/136) Accurately ripped 09 [d8fc8806] (019/134) Accurately rippedOffsetted by 168: 01 [c03d86dc] (012/137) Accurately ripped 02 [6ef988c8] (012/138) Accurately ripped 03 [667f39a1] (012/136) Accurately ripped 04 [5cd7499c] (012/138) Accurately ripped 05 [7237193a] (012/138) Accurately ripped 06 [8f094bf8] (012/137) Accurately ripped 07 [63dc27bb] (012/137) Accurately ripped 08 [de1fdd1f] (012/136) Accurately ripped 09 [ea0eff15] (011/134) Accurately rippedOffsetted by 249: 01 [3ad0ca2a] (030/137) Accurately ripped 02 [70be5729] (031/138) Accurately ripped 03 [262ea34a] (030/136) Accurately ripped 04 [53052586] (031/138) Accurately ripped 05 [ae1b8c78] (031/138) Accurately ripped 06 [2d6c11f0] (030/137) Accurately ripped 07 [e167235f] (031/137) Accurately ripped 08 [a00ceea2] (031/136) Accurately ripped 09 [98eca4fb] (031/134) Accurately rippedOffsetted by 379: 01 [67bf66e4] (004/137) Accurately ripped 02 [8b44c27c] (004/138) Accurately ripped 03 [22cde053] (003/136) Accurately ripped 04 [2e42c917] (004/138) Accurately ripped 05 [cba55e25] (004/138) Accurately ripped 06 [6c646815] (004/137) Accurately ripped 07 [ef7584af] (004/137) Accurately ripped 08 [49198193] (004/136) Accurately ripped 09 [350f4b4c] (004/134) Accurately ripped

Track Peak [ CRC32 ] [W/O NULL] [ LOG ] -- 100,0 [D266BCEE] [200F7351] CRC32 01 100,0 [1946C033] [A9425F0F] 02 100,0 [A40365CC] [EC988BD0] 03 83,9 [802FA002] [AC851051] 04 97,3 [9E6891CB] [C6D3FDA3] 05 97,6 [5EF26F8C] [F07DD89D] 06 96,2 [E16DD8AB] [DE7C3DBA] 07 88,0 [063AE9AB] [C0ADC355] 08 92,3 [9020B00D] [59B778E7] 09 96,1 [C67E26F0] [F77AD0FA]
Издатель (лейбл): Chrysalis Records
Номер по каталогу: VK 41622
Продолжительность: 45:36

Треклист:
01. Small World (Part One) (3:56)
02. Old Antone's (4:48)
03. Perfect World (4:11)
04. Bobo Tempo (4:37)
05. Small World (Part Two) (4:06)
06. Walking With The Kid (4:03)
07. World To Me (5:22)
08. Better Be True (5:22)
09. Give Me The Keys (And I'll Drive You Crazy) (4:38)
10. Slammin' (4:33)
Exact Audio Copy V1.0 beta 2 from 29. April 2011

EAC extraction logfile from 28. August 2012, 13:25

Huey Lewis And The News / Small World

Used drive : HL-DT-STDVDRAM GH60N Adapter: 0 ID: 1

Read mode : SecureUtilize accurate stream : YesDefeat audio cache : YesMake use of C2 pointers : No

Read offset correction : 667Overread into Lead-In and Lead-Out : NoFill up missing offset samples with silence : YesDelete leading and trailing silent blocks : NoNull samples used in CRC calculations : YesUsed interface : Native Win32 interface for Win NT & 2000

Used output format : User Defined EncoderSelected bitrate : 1024 kBit/sQuality : HighAdd ID3 tag : NoCommand line compressor : C:\Program Files (x86)\Exact Audio Copy\Flac\flac.exeAdditional command line options : -V -8 -T "artist=%albumartist%" -T "title=%title%" -T "album=%albumtitle%" -T "date=%year%" -T "genre=%genre%" -T "tracknumber=%tracknr%" %source%

TOC of the extracted CD

Track | Start | Length | Start sector | End sector --------------------------------------------------------- 1 | 0:00.00 | 3:55.72 | 0 | 17696 2 | 3:55.72 | 4:47.73 | 17697 | 39294 3 | 8:43.70 | 4:11.00 | 39295 | 58119 4 | 12:54.70 | 4:37.05 | 58120 | 78899 5 | 17:32.00 | 4:05.62 | 78900 | 97336 6 | 21:37.62 | 4:03.33 | 97337 | 115594 7 | 25:41.20 | 5:21.50 | 115595 | 139719 8 | 31:02.70 | 5:22.15 | 139720 | 163884 9 | 36:25.10 | 4:37.47 | 163885 | 184706 10 | 41:02.57 | 4:33.35 | 184707 | 205216

Range status and errors

Selected range

Filename C:\EAC\Huey Lewis And The News - (1988) Small World\Huey Lewis And The News - Small World.wav

Peak level 99.9 % Extraction speed 2.0 X Range quality 100.0 % Test CRC B757B0E2 Copy CRC B757B0E2 Copy OK

No errors occurred

AccurateRip summary

Track 1 accurately ripped (confidence 10) [D3B35F73] (AR v1)Track 2 accurately ripped (confidence 10) [9C8CBDE6] (AR v1)Track 3 accurately ripped (confidence 10) [7F215A9E] (AR v1)Track 4 accurately ripped (confidence 10) [2F6978AC] (AR v1)Track 5 accurately ripped (confidence 10) [47E1A449] (AR v1)Track 6 accurately ripped (confidence 10) [42C345C6] (AR v1)Track 7 accurately ripped (confidence 10) [D401CEC2] (AR v1)Track 8 accurately ripped (confidence 10) [2CE1B548] (AR v1)Track 9 accurately ripped (confidence 10) [B4CBA155] (AR v1)Track 10 accurately ripped (confidence 9) [2E37EFE8] (AR v1)

All tracks accurately ripped

End of status report

==== Log checksum DD8CADDD457A908005B248942EAD57FF41B5212013DD729BD7E93CDC4DD97641 ====
REM GENRE RockREM DATE 1988REM DISCID 8F0AB00AREM COMMENT "ExactAudioCopy v1.0b2"PERFORMER "Huey Lewis And The News"TITLE "Small World"FILE "Huey Lewis And The News - Small World.flac" WAVE TRACK 01 AUDIO TITLE "Small World (Part One)" PERFORMER "Huey Lewis And The News" INDEX 01 00:00:00 TRACK 02 AUDIO TITLE "Old Antone's" PERFORMER "Huey Lewis And The News" INDEX 00 03:53:60 INDEX 01 03:55:72 TRACK 03 AUDIO TITLE "Perfect World" PERFORMER "Huey Lewis And The News" INDEX 00 08:43:55 INDEX 01 08:43:70 TRACK 04 AUDIO TITLE "Bobo Tempo" PERFORMER "Huey Lewis And The News" INDEX 00 12:50:47 INDEX 01 12:54:70 TRACK 05 AUDIO TITLE "Small World (Part Two)" PERFORMER "Huey Lewis And The News" INDEX 01 17:32:00 TRACK 06 AUDIO TITLE "Walking With The Kid" PERFORMER "Huey Lewis And The News" INDEX 00 21:35:72 INDEX 01 21:37:62 TRACK 07 AUDIO TITLE "World To Me" PERFORMER "Huey Lewis And The News" INDEX 00 25:36:40 INDEX 01 25:41:20 TRACK 08 AUDIO TITLE "Better Be True" PERFORMER "Huey Lewis And The News" INDEX 00 30:59:55 INDEX 01 31:02:70 TRACK 09 AUDIO TITLE "Give Me The Keys (And I'll Drive You Crazy)" PERFORMER "Huey Lewis And The News" INDEX 00 36:21:67 INDEX 01 36:25:10 TRACK 10 AUDIO TITLE "Slammin'" PERFORMER "Huey Lewis And The News" INDEX 00 40:59:32 INDEX 01 41:02:57
[CUETools log; Date: 12.09.2012 20:33:06; Version: 2.0.9][CTDB TOCID: FqCJ6liUcI_dHS8QoVLEuwNCU8I-] found. [ CTDBID ] Status [53063362] (08/11) No match [0fbad2c9] (03/11) Accurately ripped[AccurateRip ID: 0010cab9-00875ae5-8f0ab00a] found.Track [ CRC ] Status 01 [d3b35f73] (10/77) Accurately ripped 02 [9c8cbde6] (10/79) Accurately ripped 03 [7f215a9e] (10/79) Accurately ripped 04 [2f6978ac] (10/79) Accurately ripped 05 [47e1a449] (10/79) Accurately ripped 06 [42c345c6] (10/78) Accurately ripped 07 [d401cec2] (10/80) Accurately ripped 08 [2ce1b548] (10/77) Accurately ripped 09 [b4cba155] (10/78) Accurately ripped 10 [2e37efe8] (09/75) Accurately rippedOffsetted by -168: 01 [cc05db5b] (20/77) Accurately ripped 02 [21dd1766] (21/79) Accurately ripped 03 [794b7ed6] (21/79) Accurately ripped 04 [f7e08c01] (21/79) Accurately ripped 05 [8d4523ec] (20/79) Accurately ripped 06 [5b997966] (21/78) Accurately ripped 07 [94f82bc2] (21/80) Accurately ripped 08 [11a118d8] (00/77) No match 09 [5299fca5] (00/78) No match 10 [59149ac8] (00/75) No matchOffsetted by -164: 01 [5e7dcc37] (00/77) No match 02 [c95b2da6] (00/79) No match 03 [610d8a2a] (00/79) No match 04 [1b29fcc3] (00/79) No match 05 [0bcf27c6] (00/79) No match 06 [8bc522d6] (00/78) No match 07 [59849742] (00/80) No match 08 [4f3b0430] (20/77) Accurately ripped 09 [e121439d] (21/78) Accurately ripped 10 [2d64af18] (19/75) Accurately rippedOffsetted by -69: 01 [b51e64a0] (19/77) Accurately ripped 02 [534dbe16] (19/79) Accurately ripped 03 [a14e1735] (19/79) Accurately ripped 04 [e9be09a3] (19/79) Accurately ripped 05 [4500b897] (20/79) Accurately ripped 06 [83d21afa] (19/78) Accurately ripped 07 [958b9062] (20/80) Accurately ripped 08 [8642999a] (00/77) No match 09 [1a2e191f] (00/78) No match 10 [1fd29184] (00/75) No matchOffsetted by -65: 01 [4796557c] (00/77) No match 02 [facbd456] (00/79) No match 03 [89102289] (00/79) No match 04 [aff54626] (00/79) No match 05 [c358bb60] (00/79) No match 06 [b3fdc46a] (00/78) No match 07 [5a17fbe2] (00/80) No match 08 [c3dc84f2] (19/77) Accurately ripped 09 [a8b56017] (19/78) Accurately ripped 10 [f422a5d4] (19/75) Accurately rippedOffsetted by 126: 01 [59758285] (18/77) Accurately ripped 02 [38907ac6] (19/79) Accurately ripped 03 [8381bf74] (19/79) Accurately ripped 04 [a9425973] (19/79) Accurately ripped 05 [d05d56e4] (19/79) Accurately ripped 06 [30229f0e] (18/78) Accurately ripped 07 [03490902] (19/80) Accurately ripped 08 [c1522a9c] (00/77) No match 09 [3e70dcd9] (00/78) No match 10 [ce126fc0] (00/75) No matchOffsetted by 130: 01 [ebed7361] (00/77) No match 02 [e00e9106] (00/79) No match 03 [6b43cac8] (00/79) No match 04 [8a9fd37d] (00/79) No match 05 [4e8557e6] (00/79) No match 06 [604e487e] (00/78) No match 07 [c7d57482] (00/80) No match 08 [feec15f4] (18/77) Accurately ripped 09 [ccf823d1] (18/78) Accurately ripped 10 [a2628410] (18/75) Accurately ripped

Track Peak [ CRC32 ] [W/O NULL] [ LOG ] -- 99,9 [B757B0E2] [00C37647] CRC32 01 97,7 [150B681F] [B66C655F] 02 95,7 [DDA973AC] [584C0F78] 03 99,9 [79C36CFB] [41812833] 04 80,9 [1E2DAE3C] [DA3F97FE] 05 98,8 [5C3FF7A1] [2F36730A] 06 97,7 [91A9CCDB] [C1FE5A5C] 07 81,5 [9F147759] [39C36080] 08 93,4 [85F02E12] [3483F669] 09 95,5 [2C9C2066] [6F42F0CE] 10 85,4 [A38B5B8C] [4A158EA5]
Издатель (лейбл): EMI Records USA
Номер по каталогу: CDP-7-93355-2
Продолжительность: 46:24

Треклист:
01. Build Me Up (4:29)
02. It Hit Me Like A Hammer (4:02)
03. Attitude (4:02)
04. He Don't Know (4:16)
05. Couple Days Off (4:57)
06. That's Not Me (4:16)
07. We Should Be Making Love (4:03)
08. Best Of Me (3:59)
09. Do You Love Me, Or What? (3:47)
10. Don't Look Back (3:46)
11. Time Ain't Money (4:46)
Exact Audio Copy V1.0 beta 2 from 29. April 2011

EAC extraction logfile from 28. August 2012, 15:50

Huey Lewis And The News / Hard At Play

Used drive : HL-DT-STDVDRAM GH60N Adapter: 0 ID: 1

Read mode : SecureUtilize accurate stream : YesDefeat audio cache : YesMake use of C2 pointers : No

Read offset correction : 667Overread into Lead-In and Lead-Out : NoFill up missing offset samples with silence : YesDelete leading and trailing silent blocks : NoNull samples used in CRC calculations : YesUsed interface : Native Win32 interface for Win NT & 2000

Used output format : User Defined EncoderSelected bitrate : 1024 kBit/sQuality : HighAdd ID3 tag : NoCommand line compressor : C:\Program Files (x86)\Exact Audio Copy\Flac\flac.exeAdditional command line options : -V -8 -T "artist=%albumartist%" -T "title=%title%" -T "album=%albumtitle%" -T "date=%year%" -T "genre=%genre%" -T "tracknumber=%tracknr%" %source%

TOC of the extracted CD

Track | Start | Length | Start sector | End sector --------------------------------------------------------- 1 | 0:00.00 | 4:29.20 | 0 | 20194 2 | 4:29.20 | 4:01.67 | 20195 | 38336 3 | 8:31.12 | 4:01.58 | 38337 | 56469 4 | 12:32.70 | 4:16.32 | 56470 | 75701 5 | 16:49.27 | 4:56.63 | 75702 | 97964 6 | 21:46.15 | 4:16.02 | 97965 | 117166 7 | 26:02.17 | 4:03.15 | 117167 | 135406 8 | 30:05.32 | 3:59.30 | 135407 | 153361 9 | 34:04.62 | 3:47.15 | 153362 | 170401 10 | 37:52.02 | 3:45.50 | 170402 | 187326 11 | 41:37.52 | 4:45.63 | 187327 | 208764

Range status and errors

Selected range

Filename C:\EAC\Huey Lewis And The News - (1991) Hard At Play\Huey Lewis And The News - Hard At Play.wav

Peak level 100.0 % Extraction speed 1.7 X Range quality 100.0 % Test CRC 734CA235 Copy CRC 734CA235 Copy OK

No errors occurred

AccurateRip summary

Track 1 accurately ripped (confidence 8) [6339A26C] (AR v2)Track 2 accurately ripped (confidence 8) [E2079E54] (AR v2)Track 3 accurately ripped (confidence 8) [A0B7D36C] (AR v2)Track 4 accurately ripped (confidence 8) [88221A46] (AR v2)Track 5 accurately ripped (confidence 8) [80AFF788] (AR v2)Track 6 accurately ripped (confidence 8) [1332CE4D] (AR v2)Track 7 accurately ripped (confidence 8) [B9FC8F3E] (AR v2)Track 8 accurately ripped (confidence 8) [603B3E70] (AR v2)Track 9 accurately ripped (confidence 8) [8A068610] (AR v2)Track 10 accurately ripped (confidence 8) [8935A179] (AR v2)Track 11 accurately ripped (confidence 8) [B5924FFB] (AR v2)

All tracks accurately ripped

End of status report

==== Log checksum E2DC5013DB6F3C3A79587A8C81AD3C02D60E080485A4AC51AEA0FEF760E8285D ====
REM GENRE RockREM DATE 1991REM DISCID 870ADF0BREM COMMENT "ExactAudioCopy v1.0b2"PERFORMER "Huey Lewis And The News"TITLE "Hard At Play"FILE "Huey Lewis And The News - Hard At Play.flac" WAVE TRACK 01 AUDIO TITLE "Build Me Up" PERFORMER "Huey Lewis And The News" INDEX 01 00:00:00 TRACK 02 AUDIO TITLE "It Hit Me Like A Hammer" PERFORMER "Huey Lewis And The News" INDEX 00 04:28:72 INDEX 01 04:29:20 TRACK 03 AUDIO TITLE "Attitude" PERFORMER "Huey Lewis And The News" INDEX 00 08:30:32 INDEX 01 08:31:12 TRACK 04 AUDIO TITLE "He Don't Know" PERFORMER "Huey Lewis And The News" INDEX 00 12:31:55 INDEX 01 12:32:70 TRACK 05 AUDIO TITLE "Couple Days Off" PERFORMER "Huey Lewis And The News" INDEX 00 16:47:72 INDEX 01 16:49:27 TRACK 06 AUDIO TITLE "That's Not Me" PERFORMER "Huey Lewis And The News" INDEX 00 21:45:22 INDEX 01 21:46:15 TRACK 07 AUDIO TITLE "We Should Be Making Love" PERFORMER "Huey Lewis And The News" INDEX 00 26:00:70 INDEX 01 26:02:17 TRACK 08 AUDIO TITLE "Best Of Me" PERFORMER "Huey Lewis And The News" INDEX 00 30:03:37 INDEX 01 30:05:32 TRACK 09 AUDIO TITLE "Do You Love Me, Or What?" PERFORMER "Huey Lewis And The News" INDEX 00 34:02:52 INDEX 01 34:04:62 TRACK 10 AUDIO TITLE "Don't Look Back" PERFORMER "Huey Lewis And The News" INDEX 00 37:51:47 INDEX 01 37:52:02 TRACK 11 AUDIO TITLE "Time Ain't Money" PERFORMER "Huey Lewis And The News" INDEX 00 41:36:40 INDEX 01 41:37:52
[CUETools log; Date: 12.09.2012 21:34:28; Version: 2.0.9][CTDB TOCID: 109TnPTrfIzzDfwKRnroljEyS0A-] found. [ CTDBID ] Status [5fd03c89] (10/10) Accurately ripped[AccurateRip ID: 00133e2b-00a65646-870adf0b] found.Track [ CRC ] Status 01 [ef8dc076] (72/89) Accurately ripped 02 [46667f0c] (72/89) Accurately ripped 03 [23e8f4f9] (72/89) Accurately ripped 04 [6764ca83] (72/89) Accurately ripped 05 [a8d0c5c5] (72/89) Accurately ripped 06 [596746a1] (72/89) Accurately ripped 07 [59be5ab7] (72/89) Accurately ripped 08 [bdb64e6f] (72/89) Accurately ripped 09 [304af654] (71/88) Accurately ripped 10 [99b6e401] (72/89) Accurately ripped 11 [0d94fa82] (70/86) Accurately rippedOffsetted by -1524: 01 [73c845e8] (09/89) Accurately ripped 02 [a61e2fa9] (09/89) Accurately ripped 03 [02de75bb] (09/89) Accurately ripped 04 [438af00a] (09/89) Accurately ripped 05 [2cb9f853] (09/89) Accurately ripped 06 [43a04113] (09/89) Accurately ripped 07 [cc662fbe] (09/89) Accurately ripped 08 [89749f6d] (09/89) Accurately ripped 09 [273e394f] (09/88) Accurately ripped 10 [3ee0c928] (09/89) Accurately ripped 11 [c08cbd00] (08/86) Accurately ripped

Track Peak [ CRC32 ] [W/O NULL] [ LOG ] -- 100,0 [734CA235] [D06C39B6] CRC32 01 91,3 [5DBE21FB] [AC54242F] 02 89,8 [61144A10] [F6EC71C6] 03 92,7 [B5273018] [D64462AC] 04 83,9 [F18158F9] [CAFA6A43] 05 82,8 [5B6FB396] [67194065] 06 90,1 [71BFEDFA] [1D7EBCD2] 07 85,8 [9B30BD00] [2962A4D9] 08 94,9 [A6CB6DDD] [DB42B89E] 09 100,0 [F158CB93] [2E480AF5] 10 96,3 [C8DEB2E1] [A02F73A0] 11 100,0 [F04EF40F] [9F847792]
Издатель (лейбл): Elektra Entertainment
Номер по каталогу: 61500-2
Продолжительность: 48:59

Треклист:
01. Shake Rattle And Roll (3:07)
02. Blue Monday (2:41)
03. Searching For My Love (2:51)
04. (She's) Some Kind Of Wonderful (3:06)
05. But It's Alright (2:54)
06. If You Gotta Make A Fool Of Somebody (2:32)
07. Mother In Law (2:43)
08. Little Bitty Pretty One (2:05)
09. Good Morning Little School Girl (4:02)
10. Stagger Lee (2:37)
11. She Shot A Hole In My Soul (2:39)
12. Surely I Love You (2:52)
13. You Left The Water Running (3:06)
14. Your Cash Ain't Nothin' But Trash (2:58)
15. Function At The Junction (3:13)
16. Better To Have And Not Need (3:32)
17. Going Down Slow (2:00)
Exact Audio Copy V1.0 beta 2 from 29. April 2011

EAC extraction logfile from 28. August 2012, 17:20

Huey Lewis And The News / Four Chords & Several Years Ago

Used drive : HL-DT-STDVDRAM GH60N Adapter: 0 ID: 1

Read mode : SecureUtilize accurate stream : YesDefeat audio cache : YesMake use of C2 pointers : No

Read offset correction : 667Overread into Lead-In and Lead-Out : NoFill up missing offset samples with silence : YesDelete leading and trailing silent blocks : NoNull samples used in CRC calculations : YesUsed interface : Native Win32 interface for Win NT & 2000

Used output format : User Defined EncoderSelected bitrate : 1024 kBit/sQuality : HighAdd ID3 tag : NoCommand line compressor : C:\Program Files (x86)\Exact Audio Copy\Flac\flac.exeAdditional command line options : -V -8 -T "artist=%albumartist%" -T "title=%title%" -T "album=%albumtitle%" -T "date=%year%" -T "genre=%genre%" -T "tracknumber=%tracknr%" %source%

TOC of the extracted CD

Track | Start | Length | Start sector | End sector --------------------------------------------------------- 1 | 0:00.32 | 3:07.03 | 32 | 14059 2 | 3:07.35 | 2:41.05 | 14060 | 26139 3 | 5:48.40 | 2:50.72 | 26140 | 38961 4 | 8:39.37 | 3:06.33 | 38962 | 52944 5 | 11:45.70 | 2:54.12 | 52945 | 66006 6 | 14:40.07 | 2:32.23 | 66007 | 77429 7 | 17:12.30 | 2:43.22 | 77430 | 89676 8 | 19:55.52 | 2:04.65 | 89677 | 99041 9 | 22:00.42 | 4:02.23 | 99042 | 117214 10 | 26:02.65 | 2:36.57 | 117215 | 128971 11 | 28:39.47 | 2:38.63 | 128972 | 140884 12 | 31:18.35 | 2:51.40 | 140885 | 153749 13 | 34:10.00 | 3:06.25 | 153750 | 167724 14 | 37:16.25 | 2:57.60 | 167725 | 181059 15 | 40:14.10 | 3:13.00 | 181060 | 195534 16 | 43:27.10 | 3:32.10 | 195535 | 211444 17 | 46:59.20 | 2:00.10 | 211445 | 220454

Range status and errors

Selected range

Filename C:\EAC\Huey Lewis And The News - (1991) Four Chords & Several Years Ago\Huey Lewis And The News - Four Chords & Several Years Ago.wav

Peak level 100.0 % Extraction speed 1.9 X Range quality 100.0 % Test CRC 9E8B0D27 Copy CRC 9E8B0D27 Copy OK

No errors occurred

AccurateRip summary

Track 1 accurately ripped (confidence 12) [9E03A11C] (AR v2)Track 2 accurately ripped (confidence 12) [DBE57345] (AR v2)Track 3 accurately ripped (confidence 12) [777ABAB5] (AR v2)Track 4 accurately ripped (confidence 12) [F5996E06] (AR v2)Track 5 accurately ripped (confidence 12) [61B02AE4] (AR v2)Track 6 accurately ripped (confidence 12) [ADCBF63E] (AR v2)Track 7 accurately ripped (confidence 12) [6514DECF] (AR v2)Track 8 accurately ripped (confidence 12) [46381397] (AR v2)Track 9 accurately ripped (confidence 12) [335739A2] (AR v2)Track 10 accurately ripped (confidence 12) [684C8F3E] (AR v2)Track 11 accurately ripped (confidence 12) [4FFD545F] (AR v2)Track 12 accurately ripped (confidence 12) [E17FB7F4] (AR v2)Track 13 accurately ripped (confidence 12) [6FCC157E] (AR v2)Track 14 accurately ripped (confidence 12) [1473829D] (AR v2)Track 15 accurately ripped (confidence 12) [89EF5192] (AR v2)Track 16 accurately ripped (confidence 12) [F2DE0A5E] (AR v2)Track 17 accurately ripped (confidence 12) [0E8D325E] (AR v2)

All tracks accurately ripped

End of status report

==== Log checksum 54D9FEBFC28263F607005BBC7ACFFF97413BA8124FAABD152F3C3430CC27A3F8 ====
REM GENRE "Rock & Roll"REM DATE 1994REM DISCID D50B7B11REM COMMENT "ExactAudioCopy v1.0b2"PERFORMER "Huey Lewis And The News"TITLE "Four Chords & Several Years Ago"FILE "Huey Lewis And The News - Four Chords & Several Years Ago.flac" WAVE TRACK 01 AUDIO TITLE "Shake Rattle And Roll" PERFORMER "Huey Lewis And The News" INDEX 00 00:00:00 INDEX 01 00:00:32 TRACK 02 AUDIO TITLE "Blue Monday" PERFORMER "Huey Lewis And The News" INDEX 00 03:07:32 INDEX 01 03:07:35 TRACK 03 AUDIO TITLE "Searching For My Love" PERFORMER "Huey Lewis And The News" INDEX 00 05:48:37 INDEX 01 05:48:40 TRACK 04 AUDIO TITLE "(She's) Some Kind Of Wonderful" PERFORMER "Huey Lewis And The News" INDEX 00 08:38:70 INDEX 01 08:39:37 TRACK 05 AUDIO TITLE "But It's Alright" PERFORMER "Huey Lewis And The News" INDEX 00 11:45:40 INDEX 01 11:45:70 TRACK 06 AUDIO TITLE "If You Gotta Make A Fool Of Somebody" PERFORMER "Huey Lewis And The News" INDEX 00 14:39:42 INDEX 01 14:40:07 TRACK 07 AUDIO TITLE "Mother In Law" PERFORMER "Huey Lewis And The News" INDEX 00 17:11:37 INDEX 01 17:12:30 TRACK 08 AUDIO TITLE "Little Bitty Pretty One" PERFORMER "Huey Lewis And The News" INDEX 00 19:55:12 INDEX 01 19:55:52 TRACK 09 AUDIO TITLE "Good Morning Little School Girl" PERFORMER "Huey Lewis And The News" INDEX 00 22:00:40 INDEX 01 22:00:42 TRACK 10 AUDIO TITLE "Stagger Lee" PERFORMER "Huey Lewis And The News" INDEX 00 26:01:15 INDEX 01 26:02:65 TRACK 11 AUDIO TITLE "She Shot A Hole In My Soul" PERFORMER "Huey Lewis And The News" INDEX 00 28:39:37 INDEX 01 28:39:47 TRACK 12 AUDIO TITLE "Surely I Love You" PERFORMER "Huey Lewis And The News" INDEX 00 31:17:72 INDEX 01 31:18:35 TRACK 13 AUDIO TITLE "You Left The Water Running" PERFORMER "Huey Lewis And The News" INDEX 00 34:09:72 INDEX 01 34:10:00 TRACK 14 AUDIO TITLE "Your Cash Ain't Nothin' But Trash" PERFORMER "Huey Lewis And The News" INDEX 00 37:16:20 INDEX 01 37:16:25 TRACK 15 AUDIO TITLE "Function At The Junction" PERFORMER "Huey Lewis And The News" INDEX 00 40:14:05 INDEX 01 40:14:10 TRACK 16 AUDIO TITLE "Better To Have And Not Need" PERFORMER "Huey Lewis And The News" INDEX 00 43:26:17 INDEX 01 43:27:10 TRACK 17 AUDIO TITLE "Going Down Slow" PERFORMER "Huey Lewis And The News" INDEX 00 46:59:00 INDEX 01 46:59:20
[CUETools log; Date: 12.09.2012 22:33:04; Version: 2.0.9]Pregap length 00:00:32.[AccurateRip ID: 001e3b99-017f2440-d50b7b11] found.Track [ CRC ] Status 01 [f896a0fd] (100/119) Accurately ripped 02 [5d692488] (103/122) Accurately ripped 03 [fe30875e] (103/122) Accurately ripped 04 [e9469c0f] (104/123) Accurately ripped 05 [b47fef95] (103/122) Accurately ripped 06 [0361406e] (104/123) Accurately ripped 07 [11b83707] (103/122) Accurately ripped 08 [79f3b53e] (104/123) Accurately ripped 09 [9b583a2f] (103/122) Accurately ripped 10 [c2328d55] (104/123) Accurately ripped 11 [d0fce6fa] (103/122) Accurately ripped 12 [49abc7f7] (103/122) Accurately ripped 13 [bd5f7127] (101/120) Accurately ripped 14 [3f5273d6] (102/121) Accurately ripped 15 [d636ec80] (102/121) Accurately ripped 16 [8abc5335] (101/120) Accurately ripped 17 [f175096c] (097/116) Accurately rippedOffsetted by -1510: 01 [634be578] (007/119) Accurately ripped 02 [96b006f7] (007/122) Accurately ripped 03 [ad4c2d46] (007/122) Accurately ripped 04 [d9e24fc9] (007/123) Accurately ripped 05 [d65b3f80] (007/122) Accurately ripped 06 [997de86d] (007/123) Accurately ripped 07 [4bee8a66] (007/122) Accurately ripped 08 [eb685b5b] (007/123) Accurately ripped 09 [4978d773] (007/122) Accurately ripped 10 [49b78222] (007/123) Accurately ripped 11 [0751b765] (007/122) Accurately ripped 12 [f0634149] (007/122) Accurately ripped 13 [a29d86f8] (007/120) Accurately ripped 14 [0128c18b] (007/121) Accurately ripped 15 [cedf5a7e] (007/121) Accurately ripped 16 [74b74feb] (007/120) Accurately ripped 17 [c37e8a36] (007/116) Accurately ripped

Track Peak [ CRC32 ] [W/O NULL] [ LOG ] -- 100,0 [9E8B0D27] [96681F36] CRC32 01 97,3 [10DA32B7] [A241EF4D] 02 97,4 [2A34827B] [B8147A78] 03 97,0 [91EF7D10] [68AC7174] 04 97,7 [26346BDB] [FE6CC629] 05 98,3 [613DB9F1] [416A9C2B] 06 100,0 [0E8EFFF5] [3E3323B5] 07 98,8 [2055B478] [9200C6A7] 08 99,4 [953A8217] [FD4A448E] 09 100,0 [7E2273E5] [26EA2069] 10 100,0 [F2B73E26] [9A3659DC] 11 99,5 [9DE4A696] [E60BAAFD] 12 98,4 [33344027] [24B65A8E] 13 100,0 [96B9113F] [1DCFE6AD] 14 97,2 [B3A4EB2D] [70101EF6] 15 100,0 [773BBBFF] [17E8A32C] 16 100,0 [59EA73DE] [C5AAD721] 17 100,0 [15630C6B] [9CA3E3AB]


Трекер:  [ 14-Сен-2012 13:46 ]

  

Скачать .torrent

Размер .torrent файла 19 KB


Размер: 2.14 GB
Хэш (hash) релиза: b14f06c4f85061f49d1e1284bad14c67a87f4da2

Еще никто не оставлял запись к записи скачать торрент Huey Lewis And The News - Collection, 6 Albums - 1980-1994, FLAC . Будь первым!

!Обратная связь