Скачать через торрент музыку Kate Bush - The Red Shoes бесплатно без регистрации torrent

Если у вас наблюдаются проблемы со скриншотами, переходом по ссылками, скачиванием торрентов - проблемы в блокировщике рекламы AdBlock. #хорошегоДня!


Статистика раздачи
Размер:  239 MB   |    Зарегистрирован:  4 года 11 месяцев   |    .torrent скачан:  8 раз   |   
Раздают:  1  
   
Загрузка...
 
Автор Сообщение

Galfimbul

avatar Galfimbul


KATE BUSH · THE RED SHOES (part one)
Жанр: Prog related
Год выпуска: 4 April 1994
Страна-производитель диска: UK
Издатель: EMI/Novercia, CDEMS 316, 7243 8 81312 2 3, (1994)
Страна: UK
Аудио кодек: FLAC (*.flac)
Тип рипа: tracks+.cue
Битрейт аудио: lossless
Продолжительность: 18:53
Источник (релизер): what.cd, Batou2008
Наличие сканов в содержимом раздачи: да, из сети
Tracklist:
1. The Red Shoes 4:02
2. You Want Alchemy 4:22
3. Cloudbusting (Video Mix) 6:57
4. This Women's Work (Kevin Killen Mix) 3:32
Exact Audio Copy V0.99 prebeta 4 from 23. January 2008

EAC extraction logfile from 22. July 2008, 16:14

Kate Bush / The Red Shoes - CD1

Used drive : MATSHITADVD-R UJ-857D Adapter: 0 ID: 1

Read mode : SecureUtilize accurate stream : YesDefeat audio cache : YesMake use of C2 pointers : No

Read offset correction : 102Overread into Lead-In and Lead-Out : NoFill up missing offset samples with silence : YesDelete leading and trailing silent blocks : NoNull samples used in CRC calculations : YesUsed interface : Native Win32 interface for Win NT & 2000Gap handling : Appended to previous track

Used output format : User Defined EncoderSelected bitrate : 128 kBit/sQuality : HighAdd ID3 tag : NoCommand line compressor : C:\Program Files\FLAC\flac.exeAdditional command line options : -V -8 -T \"artist=%a\" -T \"title=%t\" -T \"album=%g\" -T \"date=%y\" -T \"tracknumber=%n\" -T \"genre=%m\" %s

TOC of the extracted CD

Track | Start | Length | Start sector | End sector --------------------------------------------------------- 1 | 0:00.33 | 4:02.02 | 33 | 18184 2 | 4:02.35 | 4:21.68 | 18185 | 37827 3 | 8:24.28 | 6:57.17 | 37828 | 69119 4 | 15:21.45 | 3:31.58 | 69120 | 85002

Track 1

Filename Z:\A\01 - The Red Shoes.wav

Pre-gap length 0:00:02.33

Peak level 99.4 % Track quality 100.0 % Test CRC 1678AF46 Copy CRC 1678AF46 Accurately ripped (confidence 5) [BF5665F4] Copy OK

Track 2

Filename Z:\A\02 - You Want Alchemy.wav

Pre-gap length 0:00:00.67

Peak level 99.4 % Track quality 100.0 % Test CRC 2DC2BB56 Copy CRC 2DC2BB56 Accurately ripped (confidence 6) [1875497F] Copy OK

Track 3

Filename Z:\A\03 - Cloudbusting (Video Mix).wav

Pre-gap length 0:00:01.00

Peak level 98.9 % Track quality 100.0 % Test CRC 38EC3D4B Copy CRC 38EC3D4B Accurately ripped (confidence 5) [A6924402] Copy OK

Track 4

Filename Z:\A\04 - This Woman's Work.wav

Pre-gap length 0:00:01.67

Peak level 61.2 % Track quality 100.0 % Test CRC B96017BC Copy CRC B96017BC Accurately ripped (confidence 5) [49957F66] Copy OK

All tracks accurately ripped

No errors occurred

End of status report
REM GENRE RockREM DATE 1994REM DISCID 25046D04REM COMMENT "ExactAudioCopy v0.99pb4"PERFORMER "Kate Bush"TITLE "The Red Shoes - CD1"FILE "01 - The Red Shoes.wav" WAVE TRACK 01 AUDIO TITLE "The Red Shoes" PERFORMER "Kate Bush" PREGAP 00:00:33 INDEX 01 00:00:00 TRACK 02 AUDIO TITLE "You Want Alchemy" PERFORMER "Kate Bush" INDEX 00 04:01:10FILE "02 - You Want Alchemy.wav" WAVE INDEX 01 00:00:00 TRACK 03 AUDIO TITLE "Cloudbusting (Video Mix)" PERFORMER "Kate Bush" INDEX 00 04:20:68FILE "03 - Cloudbusting (Video Mix).wav" WAVE INDEX 01 00:00:00 TRACK 04 AUDIO TITLE "This Woman's Work" PERFORMER "Kate Bush" INDEX 00 06:55:25FILE "04 - This Woman's Work.wav" WAVE INDEX 01 00:00:00
[CUETools log; Date: 07.09.2012 21:47:48; Version: 2.1.4]Pregap length 00:00:33.[CTDB TOCID: OK5.suHw4WRSIN1D9EKXJbTDxzQ-] disk not present in database.[AccurateRip ID: 000334f9-000cfdb6-25046d04] found.Track [ CRC | V2 ] Status 01 [bf5665f4|ab494bc5] (09+00/09) Accurately ripped 02 [1875497f|58c5c2f0] (10+02/12) Accurately ripped 03 [a6924402|4374f5b9] (09+02/11) Accurately ripped 04 [49957f66|09a6c796] (09+00/09) Accurately ripped

Track Peak [ CRC32 ] [W/O NULL] [ LOG ] -- 99,4 [07E4E88F] [FCEF7C97] 01 99,4 [1678AF46] [1A7B9BA6] CRC32 02 99,4 [2DC2BB56] [5466562D] CRC32 03 98,9 [38EC3D4B] [0844FC19] CRC32 04 61,2 [B96017BC] [6D756E70] CRC32

KATE BUSH · THE RED SHOES (part two)
Жанр: Prog related
Год выпуска: 11 April 1994
Страна-производитель диска: UK
Издатель: EMI/Novercia, CDEMS 316, 7243 8 81313 2 2, (1994)
Страна: UK
Аудио кодек: FLAC (*.flac)
Тип рипа: tracks+.cue
Битрейт аудио: lossless
Продолжительность: 20:31
Источник (релизер): what.cd, Batou2008
Наличие сканов в содержимом раздачи: да, из сети
Tracklist:
1. Shoedance (The Red Shoes Dance Mix) 10:08
2. The Big Sky 4:40
3. Running Up That Hill (12" Version) 5:43
Exact Audio Copy V0.99 prebeta 4 from 23. January 2008

EAC extraction logfile from 22. July 2008, 18:51

Kate Bush / The Red Shoes - CD2

Used drive : MATSHITADVD-R UJ-857D Adapter: 0 ID: 1

Read mode : SecureUtilize accurate stream : YesDefeat audio cache : YesMake use of C2 pointers : No

Read offset correction : 102Overread into Lead-In and Lead-Out : NoFill up missing offset samples with silence : YesDelete leading and trailing silent blocks : NoNull samples used in CRC calculations : YesUsed interface : Native Win32 interface for Win NT & 2000Gap handling : Appended to previous track

Used output format : User Defined EncoderSelected bitrate : 128 kBit/sQuality : HighAdd ID3 tag : NoCommand line compressor : C:\Program Files\FLAC\flac.exeAdditional command line options : -V -8 -T \"artist=%a\" -T \"title=%t\" -T \"album=%g\" -T \"date=%y\" -T \"tracknumber=%n\" -T \"genre=%m\" %s

TOC of the extracted CD

Track | Start | Length | Start sector | End sector --------------------------------------------------------- 1 | 0:00.33 | 10:08.27 | 33 | 45659 2 | 10:08.60 | 4:39.65 | 45660 | 66649 3 | 14:48.50 | 5:42.70 | 66650 | 92369

Track 1

Filename Z:\A\01 - Shoedance (The Red Shoes Dance Mix).wav

Pre-gap length 0:00:02.33

Peak level 99.4 % Track quality 100.0 % Test CRC B86F00F1 Copy CRC B86F00F1 Accurately ripped (confidence 5) [882A070F] Copy OK

Track 2

Filename Z:\A\02 - The Big Sky.wav

Pre-gap length 0:00:02.05

Peak level 99.4 % Track quality 100.0 % Test CRC 00D19D67 Copy CRC 00D19D67 Accurately ripped (confidence 5) [1F5E35AA] Copy OK

Track 3

Filename Z:\A\03 - Running Up That Hill (12'' version).wav

Pre-gap length 0:00:02.70

Peak level 99.4 % Track quality 100.0 % Test CRC A13FD77F Copy CRC A13FD77F Accurately ripped (confidence 5) [B1AB874D] Copy OK

All tracks accurately ripped

No errors occurred

End of status report
REM GENRE RockREM DATE 1994REM DISCID 1A04CF03REM COMMENT "ExactAudioCopy v0.99pb4"PERFORMER "Kate Bush"TITLE "The Red Shoes - CD2"FILE "01 - Shoedance (The Red Shoes Dance Mix).wav" WAVE TRACK 01 AUDIO TITLE "Shoedance (The Red Shoes Dance Mix)" PERFORMER "Kate Bush" PREGAP 00:00:33 INDEX 01 00:00:00 TRACK 02 AUDIO TITLE "The Big Sky" PERFORMER "Kate Bush" INDEX 00 10:06:22FILE "02 - The Big Sky.wav" WAVE INDEX 01 00:00:00 TRACK 03 AUDIO TITLE "Running Up That Hill (12'' version)" PERFORMER "Kate Bush" INDEX 00 04:36:70FILE "03 - Running Up That Hill (12'' version).wav" WAVE INDEX 01 00:00:00
[CUETools log; Date: 07.09.2012 21:48:35; Version: 2.1.4]Pregap length 00:00:33.[CTDB TOCID: HezdaPQgbm14zHC6P3I127.cWqE-] disk not present in database.[AccurateRip ID: 00031fa9-000a152f-1a04cf03] found.Track [ CRC | V2 ] Status 01 [882a070f|6e2f5483] (10+02/12) Accurately ripped 02 [1f5e35aa|527a644b] (11+03/14) Accurately ripped 03 [b1ab874d|88201f6a] (10+02/12) Accurately ripped

Track Peak [ CRC32 ] [W/O NULL] [ LOG ] -- 99,4 [B17AAE82] [1BC6436B] 01 99,4 [B86F00F1] [33B0A2ED] CRC32 02 99,4 [00D19D67] [489E3DB7] CRC32 03 99,4 [A13FD77F] [BECC29BF] CRC32


Трекер:  [ 14-Сен-2012 13:45 ]

  

Скачать .torrent

Размер .torrent файла 39 KB


Размер: 239 MB
Хэш (hash) релиза: 51022f46ba598f17d440cd522e919f2d00b71c6b

Еще никто не оставлял запись к записи скачать торрент Kate Bush - The Red Shoes . Будь первым!

!Обратная связь