Скачать через торрент музыку Place Called Rage - Place Called Rage - 1995 бесплатно без регистрации torrent

Если у вас наблюдаются проблемы со скриншотами, переходом по ссылками, скачиванием торрентов - проблемы в блокировщике рекламы AdBlock. #хорошегоДня!


Статистика раздачи
Размер:  440 MB   |    Зарегистрирован:  5 лет 2 месяца   |    .torrent скачан:  6 раз   |   
Раздают:  1  
   
Загрузка...
 
Автор Сообщение

Galfimbul

avatar Galfimbul


Place Called Rage / Place Called Rage

Жанр: Hard Rock
Год издания: 1995 (Remastered 2012)
Издатель (лейбл): Escape Music
Номер по каталогу: ESM242
Страна: United States
Аудиокодек: APE (*.ape)
Тип рипа: image+.cue
Битрейт аудио: lossless
Продолжительность: 1:01:20
Источник (релизер): moole.ru (griffonnest)
Наличие сканов в содержимом раздачи: да
Треклист:
01. I Know Where You Been (4:24)
02. Place Called Rage (4:29)
03. Trapped (5:06)
04. Take It Lying Down (6:11)
05. Someday (4:40)
06. One Child (5:16)
07. What These Eyes Have Seen (5:46)
08. Can't Find My Way Home (4:51)
09. Jenny Doesn't Live Here Anymore (5:26)
10. Thunderbox (4:37)
11. Where Not Coming Home (5:56)
12. Chained To A Maniac (4:37)
Exact Audio Copy V0.99 prebeta 5 from 4. May 2009

EAC extraction logfile from 22. August 2012, 18:32

Place Called Rage / Place Called Rage

Used drive : HL-DT-STDVDRAM GH24LS70 Adapter: 1 ID: 1

Read mode : SecureUtilize accurate stream : YesDefeat audio cache : YesMake use of C2 pointers : No

Read offset correction : 667Overread into Lead-In and Lead-Out : NoFill up missing offset samples with silence : YesDelete leading and trailing silent blocks : NoNull samples used in CRC calculations : YesUsed interface : Installed external ASPI interface

Used output format : Internal WAV RoutinesSample format : 44.100 Hz; 16 Bit; Stereo

TOC of the extracted CD

Track | Start | Length | Start sector | End sector --------------------------------------------------------- 1 | 0:00.00 | 4:24.26 | 0 | 19825 2 | 4:24.26 | 4:29.22 | 19826 | 40022 3 | 8:53.48 | 5:05.46 | 40023 | 62943 4 | 13:59.19 | 6:10.62 | 62944 | 90755 5 | 20:10.06 | 4:40.23 | 90756 | 111778 6 | 24:50.29 | 5:16.04 | 111779 | 135482 7 | 30:06.33 | 5:46.23 | 135483 | 161455 8 | 35:52.56 | 4:51.07 | 161456 | 183287 9 | 40:43.63 | 5:26.33 | 183288 | 207770 10 | 46:10.21 | 4:36.52 | 207771 | 228522 11 | 50:46.73 | 5:56.23 | 228523 | 255245 12 | 56:43.21 | 4:36.71 | 255246 | 276016

Range status and errors

Selected range

Filename E:\Place Called Rage - Place Called Rage (1995-2012)\Place Called Rage.wav

Peak level 97.4 % Range quality 100.0 % Copy CRC 1E6F8F6B Copy OK

No errors occurred

End of status report


Трекер:  [ 14-Сен-2012 13:44 ]

  

Скачать .torrent

Размер .torrent файла 18 KB


Размер: 440 MB
Хэш (hash) релиза: a186bf23ef6cad7f9c91f74631b747057f89911b

Торренты, похожие на Place Called Rage - Place Called Rage - 1995 скачать торрент

Форум Название Автор Размер S L Добавлен
Зарубежный Rock ·· (Hard Rock) Place Called Rage - Place Called Rage - 1995 (Remastered 2012), MP3, 320 kbps Umakiro 147720846141 MB 0 0 1345818780

17:33

24-Авг-12

Еще никто не оставлял запись к записи скачать торрент Place Called Rage - Place Called Rage - 1995 . Будь первым!

!Обратная связь