Скачать через торрент музыку Rock Alley - Rock Alley - 1998, APE бесплатно без регистрации torrent

Если у вас наблюдаются проблемы со скриншотами, переходом по ссылками, скачиванием торрентов - проблемы в блокировщике рекламы AdBlock. #хорошегоДня!


Статистика раздачи
Размер:  341 MB   |    Зарегистрирован:  5 лет 2 месяца   |    .torrent скачан:  17 раз   |   
Раздают:  1  
   
Загрузка...
 
Автор Сообщение

Galfimbul

avatar Galfimbul


Rock Alley - Rock Alley

Жанр: Hard Rock
Страна-производитель диска: USA
Год издания: 1998
Издатель (лейбл): Magnetic North
Номер по каталогу: RA-01
Страна: USA
Аудиокодек: APE (*.ape)
Тип рипа: image+.cue
Битрейт аудио: lossless
Продолжительность: 50:28
Источник (релизер): original CD
Наличие сканов в содержимом раздачи: да

Треклист:

01. Hard Attack [0:05:57.20]
02. Lover On The Loose [0:04:44.35]
03. Paradise [0:03:43.26]
04. Don't Forget Me [0:05:14.19]
05. Drunk On Rock & Roll [0:03:48.70]
06. Rock & Roll Lady [0:03:35.27]
07. Jailhouse Johnny [0:04:28.69]
08. Fade Away [0:04:48.04]
09. Bump & Grind [0:04:53.38]
10. Piece Of My Heart [0:04:38.13]
11. Show It All [0:04:36.05]
Exact Audio Copy V1.0 beta 1 from 15. November 2010

Отчёт EAC об извлечении, выполненном 11. сентября 2012, 17:15

Rock Alley / Rock Alley

Дисковод: Optiarc DVD RW AD-7261S Adapter: 1 ID: 1

Режим чтения : ДостоверностьИспользование точного потока : ДаОтключение кэша аудио : ДаИспользование указателей C2 : Нет

Коррекция смещения при чтении : 48Способность читать области Lead-in и Lead-out : НетЗаполнение пропущенных сэмплов тишиной : ДаУдаление блоков с тишиной в начале и конце : НетПри вычислениях CRC использовались нулевые сэмплы : ДаИнтерфейс : Встроенный Win32-интерфейс для Win NT/2000

Выходной формат : Monkey's Audio (без потерь)Выбранный битрейт : Normal Lossless CompressionКачество : ВысокийДобавление ID3-тега : ДаУтилита сжатия : C:\Program Files\Monkey's Audio\MAC.exe

TOC извлечённого CD

Трек | Старт | Длительность | Начальный сектор | Конечный сектор --------------------------------------------------------------------- 1 | 0:00.00 | 5:57.20 | 0 | 26794 2 | 5:57.20 | 4:44.35 | 26795 | 48129 3 | 10:41.55 | 3:43.26 | 48130 | 64880 4 | 14:25.06 | 5:14.19 | 64881 | 88449 5 | 19:39.25 | 3:48.70 | 88450 | 105619 6 | 23:28.20 | 3:35.27 | 105620 | 121771 7 | 27:03.47 | 4:28.69 | 121772 | 141940 8 | 31:32.41 | 4:48.04 | 141941 | 163544 9 | 36:20.45 | 4:53.38 | 163545 | 185557 10 | 41:14.08 | 4:38.13 | 185558 | 206420 11 | 45:52.21 | 4:36.05 | 206421 | 227125

Характеристики диапазона извлечения и сообщения об ошибках

Выбранный диапазон

Имя файла D:\Downloads\Rock Alley - Rock Alley.wav

Пиковый уровень 100.0 % Скорость извлечения 0.3 X Качество диапазона 100.0 % CRC теста 49F8B779 CRC копии 49F8B779 Копирование... OK

Ошибок не произошло

Конец отчёта


Трекер:  [ 14-Сен-2012 13:41 ]

  

Скачать .torrent

Размер .torrent файла 14 KB


Размер: 341 MB
Хэш (hash) релиза: c2cf2495dec1c4c2319df1c52ced12156adf909e

Еще никто не оставлял запись к записи скачать торрент Rock Alley - Rock Alley - 1998, APE . Будь первым!

!Обратная связь