Скачать через торрент музыку Acid Mothers Temple SWR & Kazutoki Umezu & Seiichi Yamamoto - Stones, Women And Records At Taku Taku 2009 - 2011, FLAC бесплатно без регистрации torrent

Если у вас наблюдаются проблемы со скриншотами, переходом по ссылками, скачиванием торрентов - проблемы в блокировщике рекламы AdBlock. #хорошегоДня!


Статистика раздачи
Размер:  434 MB   |    Зарегистрирован:  5 лет 2 месяца   |    .torrent скачан:  23 раза   |   
Раздают:  1  
   
Загрузка...
 
Автор Сообщение

Galfimbul

avatar Galfimbul


Acid Mothers Temple SWR & Kazutoki Umezu & Seiichi Yamamoto / Stones, Women And Records At Taku Taku 2009

Жанр: Progressive Rock, Psychedelic Rock, Experimental
Страна-производитель диска: Japan
Год издания: 2011
Издатель (лейбл): Acid Mothers Temple
Номер по каталогу: AMTCD-023
Аудиокодек: FLAC (*.flac)
Тип рипа: tracks+.cue
Битрейт аудио: lossless
Продолжительность: 63:02
Источник (релизер): whatcd
Наличие сканов в содержимом раздачи: нет
Треклист:
1 Today I Remained Utterly Unmoved When I Dug Up The Time Capsule I Buried Three Days Ago... 13:03
2 The Stiff Neck Quartet 6:46
3 Keep Your Sticky Mitts Off The Azuki Futures Market! Part 1 ~ Alibi Lullaby 10:14
4 Super Golden Special Campaign 5:51
5 March Of The Planetary Monks (Those Who Seek The True Path Of Fidgeting Meditation) 7:53
6 Jazz - The Approaching Beggar 10:58
7 Keep Your Sticky Mitts Off The Azuki Futures Market! Part 2 ~ Part 100 8:14
Exact Audio Copy V1.0 beta 1 from 15. November 2010

EAC extraction logfile from 13. April 2011, 6:52

Acid Mothers Temple SWR with Umezu Kazutoki and Yamamoto Seiichi / Stones, Women and Records at Taku Taku 2009

Used drive : HL-DT-STBD-RE BH30N Adapter: 0 ID: 1

Read mode : SecureUtilize accurate stream : YesDefeat audio cache : YesMake use of C2 pointers : No

Read offset correction : 667Overread into Lead-In and Lead-Out : NoFill up missing offset samples with silence : YesDelete leading and trailing silent blocks : NoNull samples used in CRC calculations : YesUsed interface : Native Win32 interface for Win NT & 2000Gap handling : Appended to previous track

Used output format : User Defined EncoderSelected bitrate : 320 kBit/sQuality : HighAdd ID3 tag : NoCommand line compressor : C:\Program Files (x86)\Exact Audio Copy\FLAC\FLAC.EXEAdditional command line options : -V -8 -T "artist=%a" -T "title=%t" -T "album=%g" -T "date=%y" -T "tracknumber=%n" -T "genre=%m" %s

TOC of the extracted CD

Track | Start | Length | Start sector | End sector --------------------------------------------------------- 1 | 0:00.00 | 13:03.73 | 0 | 58797 2 | 13:03.73 | 6:46.14 | 58798 | 89261 3 | 19:50.12 | 10:14.38 | 89262 | 135349 4 | 30:04.50 | 5:51.18 | 135350 | 161692 5 | 35:55.68 | 7:53.57 | 161693 | 197224 6 | 43:49.50 | 10:58.37 | 197225 | 246611 7 | 54:48.12 | 8:14.55 | 246612 | 283716

Track 1

Filename C:\UPLOADS\Acid Mothers Temple SWR with Umezu Kazutoki and Yamamoto Seiichi - 2011 - Stones, Women and Records at Taku Taku 2009\01 - Today I remained utterly unmoved when I dug up the time capsule I buried three days ago....wav

Pre-gap length 0:00:02.00

Peak level 99.9 % Extraction speed 0.5 X Track quality 99.9 % Test CRC E3DB0FB8 Copy CRC E3DB0FB8 Track not present in AccurateRip database Copy OK

Track 2

Filename C:\UPLOADS\Acid Mothers Temple SWR with Umezu Kazutoki and Yamamoto Seiichi - 2011 - Stones, Women and Records at Taku Taku 2009\02 - The Stiff Neck Quartet.wav

Pre-gap length 0:00:02.00

Peak level 99.9 % Extraction speed 0.6 X Track quality 100.0 % Test CRC EEE96E09 Copy CRC EEE96E09 Track not present in AccurateRip database Copy OK

Track 3

Filename C:\UPLOADS\Acid Mothers Temple SWR with Umezu Kazutoki and Yamamoto Seiichi - 2011 - Stones, Women and Records at Taku Taku 2009\03 - Keep your sticky mitts off the azuki futures market! Part 1 ~ Alibi Lullaby.wav

Pre-gap length 0:00:02.00

Peak level 99.9 % Extraction speed 0.7 X Track quality 100.0 % Test CRC 64276930 Copy CRC 64276930 Track not present in AccurateRip database Copy OK

Track 4

Filename C:\UPLOADS\Acid Mothers Temple SWR with Umezu Kazutoki and Yamamoto Seiichi - 2011 - Stones, Women and Records at Taku Taku 2009\04 - Super Golden Special Campaign.wav

Pre-gap length 0:00:02.00

Peak level 99.9 % Extraction speed 0.7 X Track quality 100.0 % Test CRC CB62A9E1 Copy CRC CB62A9E1 Track not present in AccurateRip database Copy OK

Track 5

Filename C:\UPLOADS\Acid Mothers Temple SWR with Umezu Kazutoki and Yamamoto Seiichi - 2011 - Stones, Women and Records at Taku Taku 2009\05 - March of the Planetary Monks (those who seek the true path of fidgeting meditation).wav

Pre-gap length 0:00:02.00

Peak level 99.9 % Extraction speed 0.7 X Track quality 100.0 % Test CRC A6EF4515 Copy CRC A6EF4515 Track not present in AccurateRip database Copy OK

Track 6

Filename C:\UPLOADS\Acid Mothers Temple SWR with Umezu Kazutoki and Yamamoto Seiichi - 2011 - Stones, Women and Records at Taku Taku 2009\06 - Jazz - the approaching beggar.wav

Pre-gap length 0:00:02.00

Peak level 99.9 % Extraction speed 0.8 X Track quality 99.9 % Test CRC 861907B5 Copy CRC 861907B5 Track not present in AccurateRip database Copy OK

Track 7

Filename C:\UPLOADS\Acid Mothers Temple SWR with Umezu Kazutoki and Yamamoto Seiichi - 2011 - Stones, Women and Records at Taku Taku 2009\07 - Keep your sticky mitts off the azuki futures market! Part 2 ~ Part 100.wav

Pre-gap length 0:00:02.00

Peak level 99.9 % Extraction speed 1.0 X Track quality 100.0 % Test CRC F7A5C956 Copy CRC F7A5C956 Track not present in AccurateRip database Copy OK

None of the tracks are present in the AccurateRip database

No errors occurred

End of status report

==== Log checksum 11E5AEACC556D02E04A0BC31C7E8E8AFF0690CA885A5754BEFFD828E4BB42DBA ====
REM GENRE PsychedelicREM DATE 2011REM DISCID 5B0EC607REM COMMENT "ExactAudioCopy v1.0b1"FILE "Acid Mothers Temple SWR with Umezu Kazutoki and Yamamoto Seiichi - 2011 - Stones, Women and Records at Taku Taku 2009\01 - Today I remained utterly unmoved when I dug up the time capsule I buried three days ago....wav" WAVE TRACK 01 AUDIO INDEX 01 00:00:00 TRACK 02 AUDIO INDEX 00 13:01:73FILE "Acid Mothers Temple SWR with Umezu Kazutoki and Yamamoto Seiichi - 2011 - Stones, Women and Records at Taku Taku 2009\02 - The Stiff Neck Quartet.wav" WAVE INDEX 01 00:00:00 TRACK 03 AUDIO INDEX 00 06:44:14FILE "Acid Mothers Temple SWR with Umezu Kazutoki and Yamamoto Seiichi - 2011 - Stones, Women and Records at Taku Taku 2009\03 - Keep your sticky mitts off the azuki futures market! Part 1 ~ Alibi Lullaby.wav" WAVE INDEX 01 00:00:00 TRACK 04 AUDIO INDEX 00 10:12:38FILE "Acid Mothers Temple SWR with Umezu Kazutoki and Yamamoto Seiichi - 2011 - Stones, Women and Records at Taku Taku 2009\04 - Super Golden Special Campaign.wav" WAVE INDEX 01 00:00:00 TRACK 05 AUDIO INDEX 00 05:49:18FILE "Acid Mothers Temple SWR with Umezu Kazutoki and Yamamoto Seiichi - 2011 - Stones, Women and Records at Taku Taku 2009\05 - March of the Planetary Monks (those who seek the true path of fidgeting meditation).wav" WAVE INDEX 01 00:00:00 TRACK 06 AUDIO INDEX 00 07:51:57FILE "Acid Mothers Temple SWR with Umezu Kazutoki and Yamamoto Seiichi - 2011 - Stones, Women and Records at Taku Taku 2009\06 - Jazz - the approaching beggar.wav" WAVE INDEX 01 00:00:00 TRACK 07 AUDIO INDEX 00 10:56:37FILE "Acid Mothers Temple SWR with Umezu Kazutoki and Yamamoto Seiichi - 2011 - Stones, Women and Records at Taku Taku 2009\07 - Keep your sticky mitts off the azuki futures market! Part 2 ~ Part 100.wav" WAVE INDEX 01 00:00:00
Доп. информация: Recorded live at Taku Taku (Kyoto) on 22 Jan, 2009.
Bass, Voice – Atsushi Tsuyama
Drums, Sampler, Voice – Tatsuya Yoshida
Guitar, Biwa – Seiichi Yamamoto
Guitar, Guitar Synthesizer – Kawabata Makoto
Saxophone – Kazutoki Umezu


Трекер:  [ 14-Сен-2012 13:38 ]

  

Скачать .torrent

Размер .torrent файла 18 KB


Размер: 434 MB
Хэш (hash) релиза: 9b16659e03525ab36b326118bc43c3a4b2f4c0ec

Еще никто не оставлял запись к записи скачать торрент Acid Mothers Temple SWR & Kazutoki Umezu & Seiichi Yamamoto - Stones, Women And Records At Taku Taku 2009 - 2011, FLAC . Будь первым!

!Обратная связь