Скачать через торрент музыку U2 - The Joshua Tree бесплатно без регистрации torrent

Если у вас наблюдаются проблемы со скриншотами, переходом по ссылками, скачиванием торрентов - проблемы в блокировщике рекламы AdBlock. #хорошегоДня!


Статистика раздачи
Размер:  290 MB   |    Зарегистрирован:  4 года 11 месяцев   |    .torrent скачан:  38 раз   |   
Раздают:  1  
   
Загрузка...
 
Автор Сообщение

Galfimbul

avatar Galfimbul


U2 / The Joshua Tree (Japan Remastered 2007)

Жанр: Rock
Страна-производитель диска: Japan
Год издания: 2007
Издатель (лейбл): Universal
Номер по каталогу: 4988005496935
Страна: Ireland
Аудиокодек: FLAC (*.flac)
Тип рипа: tracks
Битрейт аудио: lossless
Продолжительность: 50:11
Источник (релизер): Собственный диск
Наличие сканов в содержимом раздачи: нет
Треклист:

1. «Where The Streets Have No Name» 5:38
2. «I Still Haven't Found What I'm Looking For» 4:38
3. «With Or Without You» 4:56
4. «Bullet The Blue Sky» 4:32
5. «Running To Stand Still» 4:18
6. «Red Hill Mining Town» 4:54
7. «In God's Country» 2:57
8. «Trip Through Your Wires» 3:33
9. «One Tree Hill» 5:23
10. «Exit» 4:13
11. «Mothers Of The Disappeared» 5:12
Exact Audio Copy V1.0 beta 3 from 29. August 2011

Отчёт EAC об извлечении, выполненном 11. сентября 2012, 12:58

U2 / The Joshua Tree

Дисковод: TSSTcorpCDDVDW SH-222BB Adapter: 1 ID: 0

Режим чтения : Скоростной

Комбинированное смещение чтения/записи : 0Способность читать области Lead-in и Lead-out : НетЗаполнение пропущенных сэмплов тишиной : ДаУдаление блоков с тишиной в начале и конце : НетПри вычислениях CRC использовались нулевые сэмплы : ДаИнтерфейс : Встроенный Win32-интерфейс для Win NT/2000Обработка зазоров : Не обнаружено, добавлено к предыдущему треку

Выходной формат : Внутренние WAV-операцииФормат сэмплов : 44.100 Гц; 16 бит; стерео

TOC извлечённого CD

Трек | Старт | Длительность | Начальный сектор | Конечный сектор --------------------------------------------------------------------- 1 | 0:00.00 | 5:38.40 | 0 | 25389 2 | 5:38.40 | 4:37.25 | 25390 | 46189 3 | 10:15.65 | 4:55.35 | 46190 | 68349 4 | 15:11.25 | 4:31.33 | 68350 | 88707 5 | 19:42.58 | 4:16.30 | 88708 | 107937 6 | 23:59.13 | 4:53.72 | 107938 | 129984 7 | 28:53.10 | 2:56.35 | 129985 | 143219 8 | 31:49.45 | 3:31.68 | 143220 | 159112 9 | 35:21.38 | 5:22.30 | 159113 | 183292 10 | 40:43.68 | 4:12.65 | 183293 | 202257 11 | 44:56.58 | 5:14.25 | 202258 | 225832

Трек 1

Имя файла C:\Users\Windows 7\Desktop\Новая папка\01 Where The Streets Have No Name.wav

Пиковый уровень 100.0 % Скорость извлечения 13.3 X CRC копии C273BA29 Копирование завершено

Трек 2

Имя файла C:\Users\Windows 7\Desktop\Новая папка\02 I Still Haven't Found What I'm Looking For.wav

Пиковый уровень 100.0 % Скорость извлечения 19.3 X CRC копии 53812AE0 Копирование... OK

Трек 3

Имя файла C:\Users\Windows 7\Desktop\Новая папка\03 With Or Without You.wav

Пиковый уровень 100.0 % Скорость извлечения 21.2 X CRC копии C601A300 Копирование... OK

Трек 4

Имя файла C:\Users\Windows 7\Desktop\Новая папка\04 Bullet The Blue Sky.wav

Пиковый уровень 100.0 % Скорость извлечения 22.9 X CRC копии DF37E2F2 Копирование... OK

Трек 5

Имя файла C:\Users\Windows 7\Desktop\Новая папка\05 Running To Stand Still.wav

Пиковый уровень 99.0 % Скорость извлечения 24.5 X CRC копии 6364A404 Копирование... OK

Трек 6

Имя файла C:\Users\Windows 7\Desktop\Новая папка\06 Red Hill Mining Town.wav

Пиковый уровень 94.5 % Скорость извлечения 26.0 X CRC копии 7C9A5DAD Копирование... OK

Трек 7

Имя файла C:\Users\Windows 7\Desktop\Новая папка\07 In God's Country.wav

Пиковый уровень 96.1 % Скорость извлечения 27.1 X CRC копии 03F780E7 Копирование... OK

Трек 8

Имя файла C:\Users\Windows 7\Desktop\Новая папка\08 Trip Through Your Wires.wav

Пиковый уровень 100.0 % Скорость извлечения 28.1 X CRC копии F1E4B7FF Копирование... OK

Трек 9

Имя файла C:\Users\Windows 7\Desktop\Новая папка\09 One Tree Hill.wav

Пиковый уровень 100.0 % Скорость извлечения 29.4 X CRC копии A1F81E58 Копирование... OK

Трек 10

Имя файла C:\Users\Windows 7\Desktop\Новая папка\10 Exit.wav

Пиковый уровень 100.0 % Скорость извлечения 30.7 X CRC копии 120CCF3D Копирование... OK

Трек 11

Имя файла C:\Users\Windows 7\Desktop\Новая папка\11 Mothers Of The Disappeared.wav

Проблемы синхронизации 0:00:00

Пиковый уровень 100.0 % Скорость извлечения 29.1 X CRC копии 9C8698E7 Копирование завершено

Ошибок не произошло

Конец отчёта
U2 (произносится «Ю Ту») — рок-группа из Дублина, Ирландия. Сформированная в 1976 году, U2, начиная с середины 80-х, является одной из самых популярных и успешных групп в мире. Было продано около 140 миллионов копий альбомов группы. В активе группы двадцать две премии «Грэмми», больше, чем у любой другой группы в мире.
The Joshua Tree (с англ. Дерево Джошуа) — пятый студийный альбом ирландской рок-группы U2, выпущенный в 1987 году. Альбом занял первое место с чартах более 20 стран, в том числе США и Великобритании. За альбом группа получила две премии «Грэмми»: «Альбом года» и «Лучшая рок-группа». Во всем мире было продано 25 млн экземпляров альбома. Рок-н-ролльное болеро «With or without You» и ритмичный госпел «I Still Haven’t Found What I’m Looking For» поднялись на первую строчку в Billboard Hot 100. U2 стала четвёртой группой (после The Beatles, The Band и The Who), чья фотография была размещена на обложке журнала Time, который назвал их «самой горячей путевкой рока (Rock’s Hottest Ticket)». Альбом поднял их на новую вершину славы, и его часто называют одним из величайших альбомов рока. На The Joshua Tree Tour они впервые играли на таких огромных концертных площадках, как стадионы.
Bono – lead vocals, harmonica, guitar
The Edge – guitars, backing vocals, piano
Adam Clayton – bass guitar
Larry Mullen, Jr. – drums


Трекер:  [ 14-Сен-2012 13:38 ]

  

Скачать .torrent

Размер .torrent файла 12 KB


Размер: 290 MB
Хэш (hash) релиза: c9e2ea8b7b40464c79fa6166d5d1082f60d3de05

Еще никто не оставлял запись к записи скачать торрент U2 - The Joshua Tree . Будь первым!

!Обратная связь