Скачать через торрент музыку Bryan Ferry - 1973 - These Foolish Things бесплатно без регистрации torrent

Если у вас наблюдаются проблемы со скриншотами, переходом по ссылками, скачиванием торрентов - проблемы в блокировщике рекламы AdBlock. #хорошегоДня!


Статистика раздачи
Размер:  328 MB   |    Зарегистрирован:  4 года 11 месяцев   |    .torrent скачан:  11 раз   |   
Раздают:  1  
   
Загрузка...
 
Автор Сообщение

Galfimbul

avatar Galfimbul


BRYAN FERRY THESE FOOLISH THINGS
Жанр: Rock
Дата выпуска: 5 October 1973
Страна-производитель диска: UK
Издатель: Virgin/E.G., EGCD 9, 257 956 (198?)
Страна: UK
Аудио кодек: FLAC (*.flac)
Тип рипа: image+.cue
Битрейт аудио: lossless
Продолжительность: 43:59
Источник (релизер): собственный рип
Наличие сканов в содержимом раздачи: 600 dpi .png
01. A Hard Rain's A-Gonna Fall 5:20
02. River Of Salt 1:49
03. Don't Ever Change 2:15
04. Piece Of My Heart 3:06
05. Baby I Don't Care 1:50
06. It's My Party 2:00
07. Don't Worry Baby 4:14
08. Sympathy For The Devil 5:51
09. The Tracks Of My Tears 3:05
10. You Won't See Me 2:32
11. I Love How You Love Me 3:02
12. Loving You Is Sweeter Than Ever 3:07
13. These Foolish Things 5:42
Bryan Ferry - vocals, piano
John Porter - guitar, bass
Phil Manzanera - guitar
Eddie Jobson - strings, keyboards, synthesizer
Roger Ball - alto & baritone saxophones
Ruan O'Lochlainn - alto saxophone
Malcolm Duncan - tenor saxophone
Henry Lowther - trumpet
David Skinner - piano
Paul Thompson - drums
John Punter - drums
Robbie Montgomery, Jessie Davis, The Angelettes - background vocals

Produced by Bryan Ferry, John Porter & John Punter

Exact Audio Copy V1.0 beta 3 from 29. August 2011

EAC extraction logfile from 6. September 2012, 1:14

Bryan Ferry / These Foolish Things (EGCD 9)

Used drive : HL-DT-STDVDRAM GE20NU11 Adapter: 0 ID: 1

Read mode : SecureUtilize accurate stream : YesDefeat audio cache : YesMake use of C2 pointers : No

Read offset correction : 667Overread into Lead-In and Lead-Out : NoFill up missing offset samples with silence : YesDelete leading and trailing silent blocks : NoNull samples used in CRC calculations : YesUsed interface : Native Win32 interface for Win NT & 2000

Used output format : User Defined EncoderSelected bitrate : 896 kBit/sQuality : HighAdd ID3 tag : NoCommand line compressor : C:\Program Files\EAC 3\Exact Audio Copy\Flac\flac.exeAdditional command line options : -V -8 %source%

TOC of the extracted CD

Track | Start | Length | Start sector | End sector --------------------------------------------------------- 1 | 0:00.00 | 5:20.25 | 0 | 24024 2 | 5:20.25 | 1:49.05 | 24025 | 32204 3 | 7:09.30 | 2:15.67 | 32205 | 42396 4 | 9:25.22 | 3:06.65 | 42397 | 56411 5 | 12:32.12 | 1:50.35 | 56412 | 64696 6 | 14:22.47 | 2:00.58 | 64697 | 73754 7 | 16:23.30 | 4:14.10 | 73755 | 92814 8 | 20:37.40 | 5:51.37 | 92815 | 119176 9 | 26:29.02 | 3:05.30 | 119177 | 133081 10 | 29:34.32 | 2:32.45 | 133082 | 144526 11 | 32:07.02 | 3:02.55 | 144527 | 158231 12 | 35:09.57 | 3:07.28 | 158232 | 172284 13 | 38:17.10 | 5:42.50 | 172285 | 197984

Range status and errors

Selected range

Filename C:\OdW\Bryan Ferry (1973) These Foolish Things (EGCD 9)\Bryan Ferry - These Foolish Things (EGCD 9).wav

Peak level 82.9 % Extraction speed 1.6 X Range quality 100.0 % Test CRC 9A3FE268 Copy CRC 9A3FE268 Copy OK

No errors occurred

AccurateRip summary

Track 1 accurately ripped (confidence 3) [5D04FB7D] (AR v2)Track 2 accurately ripped (confidence 3) [0EF3D59F] (AR v2)Track 3 accurately ripped (confidence 3) [B4F541C4] (AR v2)Track 4 accurately ripped (confidence 3) [09AE4366] (AR v2)Track 5 accurately ripped (confidence 3) [6324AD27] (AR v2)Track 6 accurately ripped (confidence 3) [506903F7] (AR v2)Track 7 accurately ripped (confidence 3) [498FD5E2] (AR v2)Track 8 accurately ripped (confidence 3) [7BAC3A52] (AR v2)Track 9 accurately ripped (confidence 3) [B0AB2827] (AR v2)Track 10 accurately ripped (confidence 3) [F39E0A2E] (AR v2)Track 11 accurately ripped (confidence 2) [773DD34F] (AR v2)Track 12 accurately ripped (confidence 2) [73FCFE8B] (AR v2)Track 13 accurately ripped (confidence 3) [B404CBDC] (AR v1)

All tracks accurately ripped

End of status report

==== Log checksum BAAE80C098CA4F6D0769A9D708CC2947673954FEA57B2CF2F3F95B1BAE8BE914 ====
REM GENRE RockREM DATE 1973REM DISCID BF0A4F0DREM COMMENT "ExactAudioCopy v1.0b3"PERFORMER "Bryan Ferry"TITLE "These Foolish Things (EGCD 9)"FILE "Bryan Ferry - These Foolish Things (EGCD 9).flac" WAVE TRACK 01 AUDIO TITLE "A Hard Rain's A-Gonna Fall" PERFORMER "Bryan Ferry" INDEX 01 00:00:00 TRACK 02 AUDIO TITLE "River Of Salt" PERFORMER "Bryan Ferry" INDEX 01 05:20:25 TRACK 03 AUDIO TITLE "Don't Ever Change" PERFORMER "Bryan Ferry" INDEX 01 07:09:30 TRACK 04 AUDIO TITLE "Piece Of My Heart" PERFORMER "Bryan Ferry" INDEX 00 09:24:15 INDEX 01 09:25:22 TRACK 05 AUDIO TITLE "Baby I Don't Care" PERFORMER "Bryan Ferry" INDEX 01 12:32:12 TRACK 06 AUDIO TITLE "It's My Party" PERFORMER "Bryan Ferry" INDEX 01 14:22:47 TRACK 07 AUDIO TITLE "Don't Worry Baby" PERFORMER "Bryan Ferry" INDEX 01 16:23:30 TRACK 08 AUDIO TITLE "Sympathy For The Devil" PERFORMER "Bryan Ferry" INDEX 00 20:35:57 INDEX 01 20:37:40 TRACK 09 AUDIO TITLE "The Tracks Of My Tears" PERFORMER "Bryan Ferry" INDEX 01 26:29:02 TRACK 10 AUDIO TITLE "You Won't See Me" PERFORMER "Bryan Ferry" INDEX 01 29:34:32 TRACK 11 AUDIO TITLE "I Love How You Love Me" PERFORMER "Bryan Ferry" INDEX 01 32:07:02 TRACK 12 AUDIO TITLE "Loving You Is Sweeter Than Ever" PERFORMER "Bryan Ferry" INDEX 01 35:09:57 TRACK 13 AUDIO TITLE "These Foolish Things" PERFORMER "Bryan Ferry" INDEX 00 38:15:05 INDEX 01 38:17:10
[CUETools log; Date: 06.09.2012 1:17:04; Version: 2.1.4][CTDB TOCID: MOIh55s.mL1Lvn.8bXgoJ5N_KuM-] found.Track | CTDB Status 1 | (2/2) Accurately ripped 2 | (2/2) Accurately ripped 3 | (2/2) Accurately ripped 4 | (2/2) Accurately ripped 5 | (2/2) Accurately ripped 6 | (2/2) Accurately ripped 7 | (2/2) Accurately ripped 8 | (2/2) Accurately ripped 9 | (2/2) Accurately ripped 10 | (2/2) Accurately ripped 11 | (2/2) Accurately ripped 12 | (2/2) Accurately ripped 13 | (2/2) Accurately ripped[AccurateRip ID: 0014036a-00c89aa6-bf0a4f0d] found.Track [ CRC | V2 ] Status 01 [22d6b891|5d04fb7d] (4+3/7) Accurately ripped 02 [e69e44a6|0ef3d59f] (3+3/6) Accurately ripped 03 [da9ec259|b4f541c4] (3+3/6) Accurately ripped 04 [6818f33e|09ae4366] (3+3/6) Accurately ripped 05 [54b93f53|6324ad27] (3+3/6) Accurately ripped 06 [958f1097|506903f7] (4+3/7) Accurately ripped 07 [4b52a692|498fd5e2] (3+3/6) Accurately ripped 08 [0775fc9d|7bac3a52] (3+3/6) Accurately ripped 09 [ea859b28|b0ab2827] (2+3/5) Accurately ripped 10 [da2bc72a|f39e0a2e] (2+3/5) Accurately ripped 11 [18bdf0c0|773dd34f] (2+2/4) Accurately ripped 12 [ea636b36|73fcfe8b] (2+2/4) Accurately ripped 13 [b404cbdc|4beda11f] (3+0/3) Accurately ripped

Track Peak [ CRC32 ] [W/O NULL] [ LOG ] -- 82,9 [9A3FE268] [F2C34A9A] CRC32 01 82,9 [02426C6A] [6BB607B9] 02 29,6 [0B7BB7AD] [EDFB67D7] 03 62,5 [631BF7F0] [2D3632ED] 04 58,7 [C053E9DD] [C2840C8B] 05 75,8 [1A0971BC] [A993658E] 06 63,6 [2D93B89E] [AAA77EE6] 07 66,7 [88726786] [976EE8A0] 08 73,5 [7A59BA06] [91EA68A4] 09 56,6 [63EE7BC7] [24CA2FD3] 10 64,2 [9E1B774D] [D3C965C2] 11 68,2 [A034E78B] [A27813D2] 12 65,6 [B082E441] [8AA9E50E] 13 67,8 [CD85F9A4] [C65E5096]



Трекер:  [ 14-Сен-2012 13:36 ]

  

Скачать .torrent

Размер .torrent файла 52 KB


Размер: 328 MB
Хэш (hash) релиза: 85823b4161e786b3db32bd491483af1115eabf31

Торренты, похожие на Bryan Ferry - 1973 - These Foolish Things скачать торрент

Форум Название Автор Размер S L Добавлен
Rосk | Mеtаl | Аltеrnаtivе, Рunk, Indереndеnt (losslеss) ·· (Pop-Rock & Soft-Rock) Bryan Ferry - These Foolish Things (HDCD, Japan) - 1973, FLAC (tracks+.cue), lossless Galfimbul 378150938361 MB 0 0 1297876100

20:08

16-Фев-11

Еще никто не оставлял запись к записи скачать торрент Bryan Ferry - 1973 - These Foolish Things . Будь первым!

!Обратная связь