Скачать через торрент музыку Maggie Reilly - Elena бесплатно без регистрации torrent

Если у вас наблюдаются проблемы со скриншотами, переходом по ссылками, скачиванием торрентов - проблемы в блокировщике рекламы AdBlock. #хорошегоДня!


Статистика раздачи
Размер:  495 MB   |    Зарегистрирован:  5 лет 1 месяц   |    .torrent скачан:  12 раз   |   
Раздают:  1  
   
Загрузка...
 
Автор Сообщение

Galfimbul

avatar Galfimbul


maggie reilly · elena
Жанр: Pop
Дата выпуска: September 30, 1996
Страна-производитель диска: Germany (Holland)
Издатель: EMI Electrola, 7243 8 37563 2 2
Страна: UK
Аудио кодек: FLAC (*.flac)
Тип рипа: tracks+.cue
Битрейт аудио: lossless
Продолжительность: 49:12
Источник (релизер): собственный рип
Наличие сканов в содержимом раздачи: 600 dpi .png
01. Walk On By 3:59
02. To France 5:09
03. Twinkle, Twinkle, Little Star 00:39
04. Little Boy's Eyes 3:44
05. You Brightened Up The Darkness 4:51
06. Listen To Your Heart 4:16
07. Syonia 4:14
08. In The Heat Of The Night 4:09
09. Elena 3:54
10. Brought Up To Believe 3:59
11. Torn Between Lovers 4:37
12. He Moved Through The Fair 3:41
13. (untitled) 00:05
14. As Darkness Falls 1:48
s. Booklet for details

Exact Audio Copy V1.0 beta 3 from 29. August 2011

EAC extraction logfile from 29. July 2012, 18:06

Maggie Reilly / Elena (7243 8 37563 2 2)

Used drive : HL-DT-STDVDRAM GE20NU11 Adapter: 0 ID: 1

Read mode : SecureUtilize accurate stream : YesDefeat audio cache : YesMake use of C2 pointers : No

Read offset correction : 667Overread into Lead-In and Lead-Out : NoFill up missing offset samples with silence : YesDelete leading and trailing silent blocks : NoNull samples used in CRC calculations : YesUsed interface : Native Win32 interface for Win NT & 2000Gap handling : Appended to previous track

Used output format : User Defined EncoderSelected bitrate : 896 kBit/sQuality : HighAdd ID3 tag : NoCommand line compressor : C:\Program Files\EAC 3\Exact Audio Copy\Flac\flac.exeAdditional command line options : -V -8 -T "Genre=%genre%" -T "Artist=%artist%" -T "Title=%title%" -T "Album=%albumtitle%" -T "Date=%year%" -T "Tracknumber=%tracknr%" -T "Comment=%comment%" %source%

TOC of the extracted CD

Track | Start | Length | Start sector | End sector --------------------------------------------------------- 1 | 0:00.00 | 3:59.37 | 0 | 17961 2 | 3:59.37 | 5:09.53 | 17962 | 41189 3 | 9:09.15 | 0:39.30 | 41190 | 44144 4 | 9:48.45 | 3:44.65 | 44145 | 61009 5 | 13:33.35 | 4:51.15 | 61010 | 82849 6 | 18:24.50 | 4:16.37 | 82850 | 102086 7 | 22:41.12 | 4:14.28 | 102087 | 121164 8 | 26:55.40 | 4:09.67 | 121165 | 139906 9 | 31:05.32 | 3:54.60 | 139907 | 157516 10 | 35:00.17 | 3:59.28 | 157517 | 175469 11 | 38:59.45 | 4:37.17 | 175470 | 196261 12 | 43:36.62 | 3:41.15 | 196262 | 212851 13 | 47:18.02 | 0:05.65 | 212852 | 213291 14 | 47:23.67 | 1:48.70 | 213292 | 221461

Track 1

Filename C:\Olaf der Weisse\Maggie Reilly (1996) Elena (7243 8 37563 2 2)\01. Walk On By.wav

Pre-gap length 0:00:02.00

Peak level 95.1 % Extraction speed 1.0 X Track quality 100.0 % Test CRC D4D21145 Copy CRC D4D21145 Accurately ripped (confidence 4) [FD1B34F6] (AR v2) Copy OK

Track 2

Filename C:\Olaf der Weisse\Maggie Reilly (1996) Elena (7243 8 37563 2 2)\02. To France.wav

Pre-gap length 0:00:00.02

Peak level 95.1 % Extraction speed 1.1 X Track quality 100.0 % Test CRC B30CE49F Copy CRC B30CE49F Accurately ripped (confidence 5) [76AD0E69] (AR v2) Copy OK

Track 3

Filename C:\Olaf der Weisse\Maggie Reilly (1996) Elena (7243 8 37563 2 2)\03. Twinkle, Twinkle, Little Star.wav

Pre-gap length 0:00:00.03

Peak level 7.3 % Extraction speed 0.6 X Track quality 100.0 % Test CRC 7CA0F678 Copy CRC 7CA0F678 Accurately ripped (confidence 5) [487546E4] (AR v2) Copy OK

Track 4

Filename C:\Olaf der Weisse\Maggie Reilly (1996) Elena (7243 8 37563 2 2)\04. Little Boy's Eyes.wav

Pre-gap length 0:00:00.03

Peak level 84.7 % Extraction speed 1.3 X Track quality 100.0 % Test CRC 17F14BBB Copy CRC 17F14BBB Accurately ripped (confidence 5) [9C72966E] (AR v2) Copy OK

Track 5

Filename C:\Olaf der Weisse\Maggie Reilly (1996) Elena (7243 8 37563 2 2)\05. You Brightened Up The Darkness.wav

Pre-gap length 0:00:00.03

Peak level 95.1 % Extraction speed 1.4 X Track quality 100.0 % Test CRC BA2153C8 Copy CRC BA2153C8 Accurately ripped (confidence 5) [5D3A3ED6] (AR v2) Copy OK

Track 6

Filename C:\Olaf der Weisse\Maggie Reilly (1996) Elena (7243 8 37563 2 2)\06. Listen To Your Heart.wav

Pre-gap length 0:00:00.03

Peak level 95.1 % Extraction speed 1.4 X Track quality 100.0 % Test CRC 89AB04D0 Copy CRC 89AB04D0 Accurately ripped (confidence 5) [7CDC9135] (AR v2) Copy OK

Track 7

Filename C:\Olaf der Weisse\Maggie Reilly (1996) Elena (7243 8 37563 2 2)\07. Syonia.wav

Pre-gap length 0:00:00.02

Peak level 95.1 % Extraction speed 1.6 X Track quality 100.0 % Test CRC 5E9F3AEA Copy CRC 5E9F3AEA Accurately ripped (confidence 5) [2652AABC] (AR v2) Copy OK

Track 8

Filename C:\Olaf der Weisse\Maggie Reilly (1996) Elena (7243 8 37563 2 2)\08. In The Heat Of The Night.wav

Pre-gap length 0:00:00.03

Peak level 95.1 % Extraction speed 1.5 X Track quality 100.0 % Test CRC 011DECEA Copy CRC 011DECEA Accurately ripped (confidence 5) [B3EA8186] (AR v2) Copy OK

Track 9

Filename C:\Olaf der Weisse\Maggie Reilly (1996) Elena (7243 8 37563 2 2)\09. Elena.wav

Pre-gap length 0:00:00.02

Peak level 95.1 % Extraction speed 1.6 X Track quality 100.0 % Test CRC 24FE463E Copy CRC 24FE463E Accurately ripped (confidence 5) [E328CD76] (AR v2) Copy OK

Track 10

Filename C:\Olaf der Weisse\Maggie Reilly (1996) Elena (7243 8 37563 2 2)\10. Brought Up To Believe.wav

Pre-gap length 0:00:00.02

Peak level 93.3 % Extraction speed 1.6 X Track quality 99.9 % Test CRC 814D3F0F Copy CRC 814D3F0F Accurately ripped (confidence 5) [D289339B] (AR v2) Copy OK

Track 11

Filename C:\Olaf der Weisse\Maggie Reilly (1996) Elena (7243 8 37563 2 2)\11. Torn Between Lovers.wav

Pre-gap length 0:00:00.03

Peak level 95.9 % Extraction speed 1.2 X Track quality 99.9 % Test CRC 57FC7505 Copy CRC 57FC7505 Accurately ripped (confidence 5) [B2A2F569] (AR v2) Copy OK

Track 12

Filename C:\Olaf der Weisse\Maggie Reilly (1996) Elena (7243 8 37563 2 2)\12. He Moved Through The Fair.wav

Pre-gap length 0:00:00.02

Peak level 48.0 % Extraction speed 2.2 X Track quality 100.0 % Test CRC A4BC4436 Copy CRC A4BC4436 Accurately ripped (confidence 4) [961ECA93] (AR v2) Copy OK

Track 13

Filename C:\Olaf der Weisse\Maggie Reilly (1996) Elena (7243 8 37563 2 2)\13..wav

Pre-gap length 0:00:01.02

Peak level 2.1 % Extraction speed 0.3 X Track quality 100.0 % Test CRC 50E15107 Copy CRC 50E15107 Track not present in AccurateRip database Copy OK

Track 14

Filename C:\Olaf der Weisse\Maggie Reilly (1996) Elena (7243 8 37563 2 2)\14. As Darkness Falls.wav

Pre-gap length 0:00:00.02

Peak level 91.0 % Extraction speed 1.6 X Track quality 99.9 % Test CRC 2F12954A Copy CRC 2F12954A Accurately ripped (confidence 4) [672321D1] (AR v2) Copy OK

13 track(s) accurately ripped 1 track(s) not present in the AccurateRip database

Some tracks could not be verified as accurate

No errors occurred

End of status report

==== Log checksum 1C0BA4A6502E667255966B45F72C128F14C4F365D0A41F90D933A4FED0B8D414 ====
REM GENRE PopREM DATE 1996REM DISCID AB0B880EREM COMMENT "ExactAudioCopy v1.0b3"PERFORMER "Maggie Reilly"TITLE "Elena (7243 8 37563 2 2)"FILE "01. Walk On By.wav" WAVE TRACK 01 AUDIO TITLE "Walk On By" PERFORMER "Maggie Reilly" INDEX 01 00:00:00 TRACK 02 AUDIO TITLE "To France" PERFORMER "Maggie Reilly" INDEX 00 03:59:35FILE "02. To France.wav" WAVE INDEX 01 00:00:00 TRACK 03 AUDIO TITLE "Twinkle, Twinkle, Little Star" PERFORMER "Maggie Reilly" INDEX 00 05:09:50FILE "03. Twinkle, Twinkle, Little Star.wav" WAVE INDEX 01 00:00:00 TRACK 04 AUDIO TITLE "Little Boy's Eyes" PERFORMER "Maggie Reilly" INDEX 00 00:39:27FILE "04. Little Boy's Eyes.wav" WAVE INDEX 01 00:00:00 TRACK 05 AUDIO TITLE "You Brightened Up The Darkness" PERFORMER "Maggie Reilly" INDEX 00 03:44:62FILE "05. You Brightened Up The Darkness.wav" WAVE INDEX 01 00:00:00 TRACK 06 AUDIO TITLE "Listen To Your Heart" PERFORMER "Maggie Reilly" INDEX 00 04:51:12FILE "06. Listen To Your Heart.wav" WAVE INDEX 01 00:00:00 TRACK 07 AUDIO TITLE "Syonia" PERFORMER "Maggie Reilly" INDEX 00 04:16:35FILE "07. Syonia.wav" WAVE INDEX 01 00:00:00 TRACK 08 AUDIO TITLE "In The Heat Of The Night" PERFORMER "Maggie Reilly" INDEX 00 04:14:25FILE "08. In The Heat Of The Night.wav" WAVE INDEX 01 00:00:00 TRACK 09 AUDIO TITLE "Elena" PERFORMER "Maggie Reilly" INDEX 00 04:09:65FILE "09. Elena.wav" WAVE INDEX 01 00:00:00 TRACK 10 AUDIO TITLE "Brought Up To Believe" PERFORMER "Maggie Reilly" INDEX 00 03:54:58FILE "10. Brought Up To Believe.wav" WAVE INDEX 01 00:00:00 TRACK 11 AUDIO TITLE "Torn Between Lovers" PERFORMER "Maggie Reilly" INDEX 00 03:59:25FILE "11. Torn Between Lovers.wav" WAVE INDEX 01 00:00:00 TRACK 12 AUDIO TITLE "He Moved Through The Fair" PERFORMER "Maggie Reilly" INDEX 00 04:37:15FILE "12. He Moved Through The Fair.wav" WAVE INDEX 01 00:00:00 TRACK 13 AUDIO TITLE " " PERFORMER "Maggie Reilly" INDEX 00 03:40:13FILE "13..wav" WAVE INDEX 01 00:00:00 TRACK 14 AUDIO TITLE "As Darkness Falls" PERFORMER "Maggie Reilly" INDEX 00 00:05:63FILE "14. As Darkness Falls.wav" WAVE INDEX 01 00:00:00
[CUETools log; Date: 29.07.2012 18:15:51; Version: 2.1.4][CTDB TOCID: k6loSypMhj2frQgazBhYamBx8aw-] found.Track | CTDB Status 1 | (1/1) Accurately ripped 2 | (1/1) Accurately ripped 3 | (1/1) Accurately ripped 4 | (1/1) Accurately ripped 5 | (1/1) Accurately ripped 6 | (1/1) Accurately ripped 7 | (1/1) Accurately ripped 8 | (1/1) Accurately ripped 9 | (1/1) Accurately ripped 10 | (1/1) Accurately ripped 11 | (1/1) Accurately ripped 12 | (1/1) Accurately ripped 13 | (1/1) Accurately ripped 14 | (1/1) Accurately ripped[AccurateRip ID: 001b4523-01222cbf-ab0b880e] found.Track [ CRC | V2 ] Status 01 [be65cb9a|fd1b34f6] (27+04/31) Accurately ripped 02 [314b9856|76ad0e69] (27+05/32) Accurately ripped 03 [84a725e8|487546e4] (26+05/31) Accurately ripped 04 [3d451b2d|9c72966e] (27+05/32) Accurately ripped 05 [6207e2c0|5d3a3ed6] (26+05/31) Accurately ripped 06 [1ecdfa3e|7cdc9135] (27+05/32) Accurately ripped 07 [dc410d7b|2652aabc] (26+05/31) Accurately ripped 08 [e8d27f54|b3ea8186] (26+05/31) Accurately ripped 09 [93c3b5de|e328cd76] (26+05/31) Accurately ripped 10 [21b82ce7|d289339b] (27+05/32) Accurately ripped 11 [00e03334|b2a2f569] (26+05/31) Accurately ripped 12 [15958013|961eca93] (26+04/30) Accurately ripped 13 [1d44725c|89e51008] (04+02/06) Accurately ripped 14 [6962070f|672321d1] (25+04/29) Accurately ripped

Track Peak [ CRC32 ] [W/O NULL] [ LOG ] -- 95,9 [7156AC4A] [9E835174] 01 95,1 [D4D21145] [C9CB6EBB] CRC32 02 95,1 [B30CE49F] [AAA47319] CRC32 03 7,3 [7CA0F678] [63B2C48A] CRC32 04 84,7 [17F14BBB] [2A122E71] CRC32 05 95,1 [BA2153C8] [41A177F3] CRC32 06 95,1 [89AB04D0] [4FF34A54] CRC32 07 95,1 [5E9F3AEA] [D1F13A68] CRC32 08 95,1 [011DECEA] [BE4255DB] CRC32 09 95,1 [24FE463E] [2BCDC24E] CRC32 10 93,3 [814D3F0F] [42472603] CRC32 11 95,9 [57FC7505] [880D8D08] CRC32 12 48,0 [A4BC4436] [B4605BC5] CRC32 13 2,1 [50E15107] [3E87DC3B] CRC32 14 91,0 [2F12954A] [083BB5F1] CRC32



Трекер:  [ 14-Сен-2012 13:37 ]

  

Скачать .torrent

Размер .torrent файла 41 KB


Размер: 495 MB
Хэш (hash) релиза: b00b2e560be0d7f4df42feee61f0de8309a46f00

Еще никто не оставлял запись к записи скачать торрент Maggie Reilly - Elena . Будь первым!

!Обратная связь