Скачать через торрент музыку Celebrity Skin - Good Clean Fun - 1992, APE бесплатно без регистрации torrent

Если у вас наблюдаются проблемы со скриншотами, переходом по ссылками, скачиванием торрентов - проблемы в блокировщике рекламы AdBlock. #хорошегоДня!


Статистика раздачи
Размер:  284 MB   |    Зарегистрирован:  4 года 11 месяцев   |    .torrent скачан:  7 раз   |   
Раздают:  1  
   
Загрузка...
 
Автор Сообщение

Galfimbul

avatar Galfimbul


Celebrity Skin / Good Clean Fun

Жанр: sleaze/glam
Страна-производитель диска: Japan
Год издания: 1992
Издатель (лейбл): Apollon
Номер по каталогу: APCY-8071
Страна: USA
Аудиокодек: APE (*.ape)
Тип рипа: image+.cue
Битрейт аудио: lossless
Источник (релизер): свой рипъ
Наличие сканов в содержимом раздачи: нет
Треклист:
01. Introduction
02. Hello
03. Dot Dot
04. Celebrity
05. Evicted
06. Poisanna
07. Visible Man
08. Rat Fink
09. Sweet Fisted Nanny
10. Dog Race
11. Monkey Brains
12. Be a Star
Exact Audio Copy V0.99 prebeta 4 from 23. January 2008

EAC extraction logfile from 10. September 2012, 19:11

Celebrity Skin / Good Clean Fun

Used drive : PIONEER DVD-RW DVR-212 Adapter: 5 ID: 0

Read mode : SecureUtilize accurate stream : YesDefeat audio cache : YesMake use of C2 pointers : No

Read offset correction : 48Overread into Lead-In and Lead-Out : NoFill up missing offset samples with silence : YesDelete leading and trailing silent blocks : NoNull samples used in CRC calculations : YesUsed interface : Native Win32 interface for Win NT & 2000

Used output format : Internal WAV RoutinesSample format : 44.100 Hz; 16 Bit; Stereo

TOC of the extracted CD

Track | Start | Length | Start sector | End sector --------------------------------------------------------- 1 | 0:00.00 | 3:09.55 | 0 | 14229 2 | 3:09.55 | 5:04.27 | 14230 | 37056 3 | 8:14.07 | 3:32.20 | 37057 | 52976 4 | 11:46.27 | 3:50.50 | 52977 | 70276 5 | 15:37.02 | 3:35.23 | 70277 | 86424 6 | 19:12.25 | 3:35.02 | 86425 | 102551 7 | 22:47.27 | 2:43.33 | 102552 | 114809 8 | 25:30.60 | 3:50.40 | 114810 | 132099 9 | 29:21.25 | 3:16.60 | 132100 | 146859 10 | 32:38.10 | 3:24.17 | 146860 | 162176 11 | 36:02.27 | 3:43.23 | 162177 | 178924 12 | 39:45.50 | 3:47.25 | 178925 | 195974

Range status and errors

Selected range

Filename D:\temp\Celebrity Skin - Good Clean Fun.wav

Peak level 97.5 % Range quality 99.9 % Copy CRC 225DB950 Copy OK

No errors occurred

AccurateRip summary

Track 1 not present in databaseTrack 2 not present in databaseTrack 3 not present in databaseTrack 4 not present in databaseTrack 5 not present in databaseTrack 6 not present in databaseTrack 7 not present in databaseTrack 8 not present in databaseTrack 9 not present in databaseTrack 10 not present in databaseTrack 11 not present in databaseTrack 12 not present in database

None of the tracks are present in the AccurateRip database

End of status report


Трекер:  [ 14-Сен-2012 13:37 ]

  

Скачать .torrent

Размер .torrent файла 23 KB


Размер: 284 MB
Хэш (hash) релиза: 3e8d817ae10f88e640484a9c7464315b1f027be1

Еще никто не оставлял запись к записи скачать торрент Celebrity Skin - Good Clean Fun - 1992, APE . Будь первым!

!Обратная связь