Скачать через торрент музыку Bob Dylan - The Freewheelin Bob Dylan - 1963 бесплатно без регистрации torrent

Если у вас наблюдаются проблемы со скриншотами, переходом по ссылками, скачиванием торрентов - проблемы в блокировщике рекламы AdBlock. #хорошегоДня!


Статистика раздачи
Размер:  344 MB   |    Зарегистрирован:  5 лет 2 месяца   |    .torrent скачан:  17 раз   |   
Раздают:  1  
   
Загрузка...
 
Автор Сообщение

Galfimbul

avatar Galfimbul


Bob Dylan / The Freewheelin' Bob Dylan

Жанр: Folk
Страна-производитель диска: USA
Год издания: 1963 (2012)
Издатель (лейбл): MFSL
Номер по каталогу: UDSACD 2081
Страна: USA
Аудиокодек: WavPack (*.wv)
Тип рипа: image+.cue
Битрейт аудио: lossless
Продолжительность: 50:26.387
Источник (релизер): gribovar (AvaxHome) [Thanks to taurus66]
Наличие сканов в содержимом раздачи: да
Треклист:
01. Blowin' In The Wind
02. Girl From The North Country
03. Masters Of War
04. Down The Highway
05. Bob Dylan's Blues
06. A Hard Rain's A-Gonna Fall
07. Don't Think Twice, It's All Right
08. Bob Dylan's Dream
09. Oxford Town
10. Talkin' World War III Blues
11. Corrina, Corrina
12. Honey, Just Allow Me One More Chance
13. I Shall Be Free
Exact Audio Copy V1.0 beta 3 from 29. August 2011

EAC extraction logfile from 7. September 2012, 17:05

Bob Dylan / The Freewheelin' Bob Dylan [MFSL UDSACD 2081]

Used drive : Optiarc DVD RW AD-7200S Adapter: 5 ID: 1

Read mode : SecureUtilize accurate stream : YesDefeat audio cache : YesMake use of C2 pointers : No

Read offset correction : 48Overread into Lead-In and Lead-Out : NoFill up missing offset samples with silence : YesDelete leading and trailing silent blocks : NoNull samples used in CRC calculations : YesUsed interface : Installed external ASPI interface

Used output format : User Defined EncoderSelected bitrate : 1024 kBit/sQuality : HighAdd ID3 tag : NoCommand line compressor : D:\Program Files (x86)\Exact Audio Copy\wavpack.exeAdditional command line options : -hlmx2 %source% %dest%

TOC of the extracted CD

Track | Start | Length | Start sector | End sector --------------------------------------------------------- 1 | 0:00.00 | 2:49.38 | 0 | 12712 2 | 2:49.38 | 3:23.07 | 12713 | 27944 3 | 6:12.45 | 4:38.23 | 27945 | 48817 4 | 10:50.68 | 3:32.42 | 48818 | 64759 5 | 14:23.35 | 2:28.73 | 64760 | 75932 6 | 16:52.33 | 6:56.19 | 75933 | 107151 7 | 23:48.52 | 3:40.60 | 107152 | 123711 8 | 27:29.37 | 5:02.51 | 123712 | 146412 9 | 32:32.13 | 1:50.23 | 146413 | 154685 10 | 34:22.36 | 6:27.62 | 154686 | 183772 11 | 40:50.23 | 2:44.32 | 183773 | 196104 12 | 43:34.55 | 2:01.20 | 196105 | 205199 13 | 45:36.00 | 4:50.29 | 205200 | 226978

Range status and errors

Selected range

Filename D:\eac\Bob Dylan\Bob Dylan - The Freewheelin' Bob Dylan [MFSL UDSACD 2081].wav

Peak level 97.5 % Extraction speed 4.1 X Range quality 100.0 % Test CRC A6B338B1 Copy CRC A6B338B1 Copy OK

No errors occurred

AccurateRip summary

Track 1 not present in databaseTrack 2 not present in databaseTrack 3 not present in databaseTrack 4 not present in databaseTrack 5 not present in databaseTrack 6 not present in databaseTrack 7 not present in databaseTrack 8 not present in databaseTrack 9 not present in databaseTrack 10 not present in databaseTrack 11 not present in databaseTrack 12 not present in databaseTrack 13 not present in database

None of the tracks are present in the AccurateRip database

End of status report

---- CUETools DB Plugin V2.1.3

[CTDB TOCID: 4GZyf0zyEc0_FLMYa9wqDSdnI9A-] found, Submit result: already submitted[e7251e59] (6/6) Accurately ripped

==== Log checksum 734508ACC48AF2540CA6D750F8B031B24E741C9342FD4960BB70FBDBE598C618 ====
REM GENRE Folk RockREM DATE 1963REM DISCID A30BD20DREM COMMENT ExactAudioCopy v1.0b3PERFORMER "Bob Dylan"TITLE "The Freewheelin' Bob Dylan"REM REPLAYGAIN_ALBUM_GAIN -3.22 dBREM REPLAYGAIN_ALBUM_PEAK 0.975403FILE "Bob Dylan - The Freewheelin' Bob Dylan [MFSL UDSACD 2081].wv" WAVE TRACK 01 AUDIO TITLE "Blowin' In The Wind" REM REPLAYGAIN_TRACK_GAIN -2.40 dB REM REPLAYGAIN_TRACK_PEAK 0.971130 INDEX 01 00:00:00 TRACK 02 AUDIO TITLE "Girl From The North Country" REM REPLAYGAIN_TRACK_GAIN -3.13 dB REM REPLAYGAIN_TRACK_PEAK 0.924316 INDEX 00 02:46:61 INDEX 01 02:49:38 TRACK 03 AUDIO TITLE "Masters Of War" REM REPLAYGAIN_TRACK_GAIN -2.86 dB REM REPLAYGAIN_TRACK_PEAK 0.970428 INDEX 00 06:09:31 INDEX 01 06:12:45 TRACK 04 AUDIO TITLE "Down The Highway" REM REPLAYGAIN_TRACK_GAIN -1.92 dB REM REPLAYGAIN_TRACK_PEAK 0.971283 INDEX 00 10:43:74 INDEX 01 10:50:68 TRACK 05 AUDIO TITLE "Bob Dylan's Blues" REM REPLAYGAIN_TRACK_GAIN -1.53 dB REM REPLAYGAIN_TRACK_PEAK 0.972443 INDEX 00 14:15:42 INDEX 01 14:23:35 TRACK 06 AUDIO TITLE "A Hard Rain's A-Gonna Fall" REM REPLAYGAIN_TRACK_GAIN -3.08 dB REM REPLAYGAIN_TRACK_PEAK 0.975403 INDEX 00 16:44:15 INDEX 01 16:52:33 TRACK 07 AUDIO TITLE "Don't Think Twice, It's All Right" REM REPLAYGAIN_TRACK_GAIN -1.84 dB REM REPLAYGAIN_TRACK_PEAK 0.920135 INDEX 00 23:43:71 INDEX 01 23:48:52 TRACK 08 AUDIO TITLE "Bob Dylan's Dream" REM REPLAYGAIN_TRACK_GAIN -3.19 dB REM REPLAYGAIN_TRACK_PEAK 0.877350 INDEX 00 27:26:51 INDEX 01 27:29:37 TRACK 09 AUDIO TITLE "Oxford Town" REM REPLAYGAIN_TRACK_GAIN -3.18 dB REM REPLAYGAIN_TRACK_PEAK 0.869049 INDEX 00 32:29:21 INDEX 01 32:32:13 TRACK 10 AUDIO TITLE "Talkin' World War III Blues" REM REPLAYGAIN_TRACK_GAIN -4.08 dB REM REPLAYGAIN_TRACK_PEAK 0.923859 INDEX 00 34:19:52 INDEX 01 34:22:36 TRACK 11 AUDIO TITLE "Corrina, Corrina" REM REPLAYGAIN_TRACK_GAIN -2.45 dB REM REPLAYGAIN_TRACK_PEAK 0.968262 INDEX 00 40:47:33 INDEX 01 40:50:23 TRACK 12 AUDIO TITLE "Honey, Just Allow Me One More Chance" REM REPLAYGAIN_TRACK_GAIN -4.77 dB REM REPLAYGAIN_TRACK_PEAK 0.893707 INDEX 00 43:31:64 INDEX 01 43:34:55 TRACK 13 AUDIO TITLE "I Shall Be Free" REM REPLAYGAIN_TRACK_GAIN -4.38 dB REM REPLAYGAIN_TRACK_PEAK 0.822083 INDEX 00 45:33:15 INDEX 01 45:36:00


Трекер:  [ 10-Сен-2012 16:59 ]

  

Скачать .torrent

Размер .torrent файла 15 KB


Размер: 344 MB
Хэш (hash) релиза: 0183d414fc62c06556935d40bff266089265a87a

Еще никто не оставлял запись к записи скачать торрент Bob Dylan - The Freewheelin Bob Dylan - 1963 . Будь первым!

!Обратная связь