Скачать через торрент музыку Smash Mouth - Magic - 2012, FLAC бесплатно без регистрации torrent

Если у вас наблюдаются проблемы со скриншотами, переходом по ссылками, скачиванием торрентов - проблемы в блокировщике рекламы AdBlock. #хорошегоДня!


Статистика раздачи
Размер:  250 MB   |    Зарегистрирован:  5 лет 1 месяц   |    .torrent скачан:  13 раз   |   
Раздают:  1  
   
Загрузка...
 
Автор Сообщение

Galfimbul

avatar Galfimbul


Smash Mouth / Magic

Жанр: Pop Rock
Год издания: 2012
Издатель (лейбл): 429 Records
Страна: USA
Аудиокодек: FLAC (*.flac)
Тип рипа: tracks+.cue
Битрейт аудио: lossless
Продолжительность: 00:33:30
Источник (релизер): What.cd (by requiem73)
Наличие сканов в содержимом раздачи: нет
Треклист:
01. Perfect Planet (2:37)
02. Live To Love Another Day (2:42)
03. Magic (Feat. J. Dash) (3:00)
04. Justin Bieber (2:33)
05. Out Of Love (3:35)
06. Flippin' Out (Feat. J. Dash) (3:00)
07. Future X Wife (2:29)
08. Better With Time (3:14)
09. The Game (2:36)
10. She's Into Me (3:21)
11. Don't You (Forget About Me) (4:21)
REM GENRE AlternativeREM DATE 2012REM DISCID 8F07D90BREM COMMENT "Team PERFECT"CATALOG 0795041790620PERFORMER "Smash Mouth"TITLE "Magic"FILE "01-smash_mouth-perfect_planet.flac" WAVE TRACK 01 AUDIO TITLE "Perfect Planet" PERFORMER "Smash Mouth" ISRC USSJ11200508 FLAGS DCP INDEX 01 00:00:00FILE "02-smash_mouth-live_to_love_another_day.flac" WAVE TRACK 02 AUDIO TITLE "Live To Love Another Day" PERFORMER "Smash Mouth" ISRC USSJ11200509 FLAGS DCP INDEX 01 00:00:00FILE "03-smash_mouth-magic_(feat._j._dash).flac" WAVE TRACK 03 AUDIO TITLE "Magic (Feat. J. Dash)" PERFORMER "Smash Mouth" ISRC USSJ11200510 FLAGS DCP INDEX 01 00:00:00FILE "04-smash_mouth-justin_bieber.flac" WAVE TRACK 04 AUDIO TITLE "Justin Bieber" PERFORMER "Smash Mouth" ISRC USSJ11200511 FLAGS DCP INDEX 01 00:00:00FILE "05-smash_mouth-out_of_love.flac" WAVE TRACK 05 AUDIO TITLE "Out Of Love" PERFORMER "Smash Mouth" ISRC USSJ11200512 FLAGS DCP INDEX 01 00:00:00FILE "06-smash_mouth-flippin_out_(feat._j._dash).flac" WAVE TRACK 06 AUDIO TITLE "Flippin' Out (Feat. J. Dash)" PERFORMER "Smash Mouth" ISRC USSJ11200513 FLAGS DCP INDEX 01 00:00:00FILE "07-smash_mouth-future_x_wife.flac" WAVE TRACK 07 AUDIO TITLE "Future X Wife" PERFORMER "Smash Mouth" ISRC USSJ11200514 FLAGS DCP INDEX 01 00:00:00FILE "08-smash_mouth-better_with_time.flac" WAVE TRACK 08 AUDIO TITLE "Better With Time" PERFORMER "Smash Mouth" ISRC USSJ11200515 FLAGS DCP INDEX 01 00:00:00FILE "09-smash_mouth-the_game.flac" WAVE TRACK 09 AUDIO TITLE "The Game" PERFORMER "Smash Mouth" ISRC USSJ11200516 FLAGS DCP INDEX 01 00:00:00FILE "10-smash_mouth-shes_into_me.flac" WAVE TRACK 10 AUDIO TITLE "She's Into Me" PERFORMER "Smash Mouth" ISRC USSJ11200517 FLAGS DCP INDEX 01 00:00:00FILE "11-smash_mouth-dont_you_(forget_about_me).flac" WAVE TRACK 11 AUDIO TITLE "Don't You (Forget About Me)" PERFORMER "Smash Mouth" ISRC USSJ11200518 FLAGS DCP INDEX 01 00:00:00


Трекер:  [ 06-Сен-2012 21:02 ]

  

Скачать .torrent

Размер .torrent файла 21 KB


Размер: 250 MB
Хэш (hash) релиза: 7fce9aa837fb3c5ad360c0509f152f554662c860

Еще никто не оставлял запись к записи скачать торрент Smash Mouth - Magic - 2012, FLAC . Будь первым!

!Обратная связь