Скачать через торрент музыку Panama Limited Jug Band - Panama Limited Jug Band - 1969 бесплатно без регистрации torrent

Если у вас наблюдаются проблемы со скриншотами, переходом по ссылками, скачиванием торрентов - проблемы в блокировщике рекламы AdBlock. #хорошегоДня!


Статистика раздачи
Размер:  289 MB   |    Зарегистрирован:  4 года 11 месяцев   |    .torrent скачан:  12 раз   |   
Раздают:  1  
   
Загрузка...
 
Автор Сообщение

Galfimbul

avatar Galfimbul


Panama Limited Jug Band / Panama Limited Jug Band - 1969 (Remastered 2006)

Жанр: Folk-Rock, Countrey
Страна-производитель диска: Spain
Год издания: 2006
Издатель (лейбл): Retro Disc International
Номер по каталогу: RDI 33005
Страна: UK
Аудиокодек: FLAC (*.flac)
Тип рипа: image+.cue
Битрейт аудио: lossless
Продолжительность: 00:45:47
Источник (релизер): Ослосеть
Наличие сканов в содержимом раздачи: да
01. 38 Plug (2:22)
02. Going To Germany (2:50)
03. Canned Heat (3:21)
04. Viola Lee (3:43)
05. Alabamy Bound (2:38)
06. Overseas Stomp (1:20)
07. Round & Round (3:11)
08. Cocaine Habit (2:40)
09. Wild Cat Squall (2:47)
10. Don't You Ease Me In (3:10)
11. Rich Girl (3:05)
12. Sundown (2:46)
13. Jailhouse (2:47)
14. Guitar King (2:45)
15: Railroad (5:30)
Exact Audio Copy V0.99 prebeta 4 from 23. January 2008

Отчёт EAC об извлечении, выполненном 15. марта 2009, 14:03

Panama Limited Jug Band / Panama Limited Jug Band

Дисковод: PLEXTOR DVD-ROM PX-116A2 Adapter: 3 ID: 0

Режим чтения : ДостоверностьИспользование точного потока : ДаОтключение кэша аудио : ДаИспользование указателей C2 : Нет

Коррекция смещения при чтении : 102Способность читать области Lead-in и Lead-out : НетЗаполнение пропущенных сэмплов тишиной : ДаУдаление блоков с тишиной в начале и конце : НетПри вычислениях CRC использовались нулевые сэмплы : ДаИнтерфейс : Встроенный Win32-интерфейс для Win NT/2000

Выходной формат : Внутренние WAV-операцииФормат сэмплов : 44.100 Гц; 16 бит; стерео

TOC извлечённого CD

Трек | Старт | Длительность | Начальный сектор | Конечный сектор --------------------------------------------------------------------- 1 | 0:00.00 | 2:25.04 | 0 | 10878 2 | 2:25.04 | 2:54.54 | 10879 | 23982 3 | 5:19.58 | 3:23.19 | 23983 | 39226 4 | 8:43.02 | 3:52.55 | 39227 | 56681 5 | 12:35.57 | 2:40.64 | 56682 | 68745 6 | 15:16.46 | 1:21.68 | 68746 | 74888 7 | 16:38.39 | 3:15.20 | 74889 | 89533 8 | 19:53.59 | 2:43.53 | 89534 | 101811 9 | 22:37.37 | 2:49.18 | 101812 | 114504 10 | 25:26.55 | 3:13.32 | 114505 | 129011 11 | 28:40.12 | 3:07.17 | 129012 | 143053 12 | 31:47.29 | 2:48.32 | 143054 | 155685 13 | 34:35.61 | 2:49.34 | 155686 | 168394 14 | 37:25.20 | 2:47.15 | 168395 | 180934 15 | 40:12.35 | 5:35.15 | 180935 | 206074

Характеристики диапазона извлечения и сообщения об ошибках

Выбранный диапазон

Имя файла C:\1_MUSIC\Lossless\Panama Limited Jug Band - Panama Limited Jug Band 1969 (2006 Remastered)\Panama Limited Jug Band - Panama Limited Jug Band.wav

Пиковый уровень 98.8 % Качество диапазона 100.0 % CRC копии C0E62D3A Копирование... OK

Ошибок не произошло

AccurateRip: сводка

Трек 1 нет в базе данныхТрек 2 нет в базе данныхТрек 3 нет в базе данныхТрек 4 нет в базе данныхТрек 5 нет в базе данныхТрек 6 нет в базе данныхТрек 7 нет в базе данныхТрек 8 нет в базе данныхТрек 9 нет в базе данныхТрек 10 нет в базе данныхТрек 11 нет в базе данныхТрек 12 нет в базе данныхТрек 13 нет в базе данныхТрек 14 нет в базе данныхТрек 15 нет в базе данных

Ни одного трека нет в базе AccurateRip

Конец отчёта
-----------------------

DON'T MODIFY THIS FILE

-----------------------

PERFORMER: auCDtect Task Manager, ver. 1.5.1RC6 build 1.5.1.7Copyright (c) 2008-2010 y-soft. All rights reservedhttp://y-soft.org

ANALYZER: auCDtect: CD records authenticity detector, version 0.8.2Copyright (c) 2004 Oleg Berngardt. All rights reserved.Copyright (c) 2004 Alexander Djourik. All rights reserved.

FILE: Panama Limited Jug Band - Panama Limited Jug Band.flac Size: 294514310 Hash: 409312ECFA6A20C7E698AAD5A074E145 Accuracy: -m0 Conclusion: CDDA 92% Signature: 0DAD619FD7BEFA1DE613A15BC9515217C06B86B0
Denis Parker-vocals
Gary Compton-harmonica
Brian Strachan-guitar
Liz Hann-vocals
Pete Hozzell-vocals
Ron Needs-mandolin
Anne Matthews-vocals


Трекер:  [ 06-Сен-2012 21:02 ]

  

Скачать .torrent

Размер .torrent файла 12 KB


Размер: 289 MB
Хэш (hash) релиза: 073197985e0d5da51153c77b50ded14a2cc94040

Еще никто не оставлял запись к записи скачать торрент Panama Limited Jug Band - Panama Limited Jug Band - 1969 . Будь первым!

!Обратная связь