Скачать через торрент музыку Emerson, Lake & Palmer - Tarkus бесплатно без регистрации torrent

Если у вас наблюдаются проблемы со скриншотами, переходом по ссылками, скачиванием торрентов - проблемы в блокировщике рекламы AdBlock. #хорошегоДня!


Статистика раздачи
Размер:  610 MB   |    Зарегистрирован:  5 лет 1 месяц   |    .torrent скачан:  30 раз   |   
Раздают:  1  
   
Загрузка...
 
Автор Сообщение

Galfimbul

avatar Galfimbul


Emerson, Lake & Palmer - Tarkus, Trilogy

Жанр: Progressive Rock
Год выпуска диска: 1994, 1995
Страна: UK
Производитель диска: MFSL
Аудио кодек: FLAC
Тип рипа: image+.cue
Битрейт аудио: lossless
Продолжительность: 38:54 + 42:25
Наличие сканов в содержимом раздачи:

Состав:
- Keith Emerson / keyboards
- Greg Lake / vocals, bass, electric & acoustic guitar
- Carl Palmer / drums, percussion

Доп. информация: http://www.progarchives.com/artist.asp?id=94
Производитель диска: Mobile Fidelity / UDCD 598
Продолжительность: 38:54

Трэклист:
01. Tarkus (20:43)
- a. Eruption (2:44)
- b. Stones Of Years (3:44)
- c. Iconoclast (1:16)
- d. Mass (3:12)
- e. Manticore (1:52)
- f. Battlefield (3:51)
- g. Aquatarkus (4:04)
02. Jeremy Bender (1:51)
03. Bitches Crystal (3:58)
04. The Only Way (Hymn)(3:49)
Toccata in F and Prelude VI (themes used in intro and bridge only)composed by: Bach
05. Infinite Space (Conclusion)(3:20)
06. A Time And A Place (3:02)
07. Are You Ready Eddy? (2:10)
Exact Audio Copy V1.0 beta 3 from 29. August 2011

EAC extraction logfile from 5. September 2012, 22:46

Emerson, Lake & Palmer / Tarkus

Used drive : PLEXTOR DVDR PX-810SA Adapter: 2 ID: 1

Read mode : SecureUtilize accurate stream : YesDefeat audio cache : YesMake use of C2 pointers : No

Read offset correction : 48Overread into Lead-In and Lead-Out : NoFill up missing offset samples with silence : YesDelete leading and trailing silent blocks : NoNull samples used in CRC calculations : YesUsed interface : Installed external ASPI interface

Used output format : User Defined EncoderSelected bitrate : 32 kBit/sQuality : LowAdd ID3 tag : NoCommand line compressor : C:\Program Files\Exact Audio Copy\FLAC\FLAC.EXEAdditional command line options : -8 -V -T "ARTIST=%artist%" -T "ALBUM=%albumtitle%" -T "DATE=%year%" -T "GENRE=%genre%" -T "COMMENT=EAC FLAC -8" %source%

TOC of the extracted CD

Track | Start | Length | Start sector | End sector --------------------------------------------------------- 1 | 0:00.37 | 20:42.70 | 37 | 93256 2 | 20:43.32 | 1:50.18 | 93257 | 101524 3 | 22:33.50 | 3:58.00 | 101525 | 119374 4 | 26:31.50 | 3:46.62 | 119375 | 136386 5 | 30:18.37 | 3:22.25 | 136387 | 151561 6 | 33:40.62 | 3:01.50 | 151562 | 165186 7 | 36:42.37 | 2:11.40 | 165187 | 175051

Range status and errors

Selected range

Filename C:\Program Files\BitComet\Downloads\Emerson, Lake & Palmer - Tarkus (1971) {MFSL}\Emerson, Lake & Palmer - Tarkus.wav

Peak level 99.8 % Extraction speed 5.5 X Range quality 100.0 % Test CRC 118A3CE2 Copy CRC 118A3CE2 Copy OK

No errors occurred

AccurateRip summary

Track 1 accurately ripped (confidence 4) [81C68313] (AR v2)Track 2 accurately ripped (confidence 4) [A519D61D] (AR v2)Track 3 accurately ripped (confidence 4) [02ACD839] (AR v2)Track 4 accurately ripped (confidence 4) [DC142AE8] (AR v2)Track 5 accurately ripped (confidence 4) [A79317A1] (AR v2)Track 6 accurately ripped (confidence 4) [F45E8FC7] (AR v2)Track 7 accurately ripped (confidence 4) [606776AA] (AR v2)

All tracks accurately ripped

End of status report

==== Log checksum F71A3F5E985179E1D1D92AEBB407C3C783606370FDB50508E9B6A5773D77D530 ====
REM GENRE "Progressive Rock"REM DATE 1971REM DISCID 47091E07REM COMMENT "ExactAudioCopy v1.0b3"PERFORMER "Emerson, Lake & Palmer"TITLE "Tarkus"FILE "Emerson, Lake & Palmer - Tarkus.flac" WAVE TRACK 01 AUDIO TITLE "Tarkus (Eruption, Stones of Years, Iconoclast, Mass, Manticore, Battlefield, ..." PERFORMER "Emerson, Lake & Palmer" INDEX 00 00:00:00 INDEX 01 00:00:37 INDEX 02 02:45:11 INDEX 03 06:29:28 INDEX 04 07:45:01 INDEX 05 10:56:66 INDEX 06 12:49:08 INDEX 07 16:40:61 TRACK 02 AUDIO TITLE "Jeremy Bender" PERFORMER "Emerson, Lake & Palmer" INDEX 00 20:40:30 INDEX 01 20:43:32 TRACK 03 AUDIO TITLE "Bitches Crystal" PERFORMER "Emerson, Lake & Palmer" INDEX 00 22:30:25 INDEX 01 22:33:50 TRACK 04 AUDIO TITLE "The Only Way (Hymn)" PERFORMER "Emerson, Lake & Palmer" INDEX 00 26:29:43 INDEX 01 26:31:50 TRACK 05 AUDIO TITLE "Infinite Space (Conclusion)" PERFORMER "Emerson, Lake & Palmer" INDEX 01 30:18:37 TRACK 06 AUDIO TITLE "A Time and a Place" PERFORMER "Emerson, Lake & Palmer" INDEX 00 33:38:02 INDEX 01 33:40:62 TRACK 07 AUDIO TITLE "Are You Ready Eddy?" PERFORMER "Emerson, Lake & Palmer" INDEX 00 36:38:50 INDEX 01 36:42:37
[CUETools log; Date: 06.09.2012 12:04:56; Version: 2.1.4]Pregap length 00:00:37.[CTDB TOCID: w21Tqksz6DoaPs30y8pTMODDGuI-] found.Track | CTDB Status 1 | (2/2) Accurately ripped 2 | (2/2) Accurately ripped 3 | (2/2) Accurately ripped 4 | (2/2) Accurately ripped 5 | (2/2) Accurately ripped 6 | (2/2) Accurately ripped 7 | (2/2) Accurately ripped[AccurateRip ID: 000e612e-004e12f2-47091e07] found.Track [ CRC | V2 ] Status 01 [862ed2cf|81c68313] (33+04/37) Accurately ripped 02 [bccd76ce|a519d61d] (34+04/38) Accurately ripped 03 [b5f6717e|02acd839] (34+04/38) Accurately ripped 04 [edf88ea2|dc142ae8] (34+04/38) Accurately ripped 05 [817b594b|a79317a1] (34+04/38) Accurately ripped 06 [38e94ab2|f45e8fc7] (34+04/38) Accurately ripped 07 [7a94bf43|606776aa] (33+04/37) Accurately ripped

Track Peak [ CRC32 ] [W/O NULL] [ LOG ] -- 99,8 [118A3CE2] [0407A02B] CRC32 01 98,6 [26725A09] [F4012F54] 02 83,1 [97B05E24] [072F54A6] 03 98,7 [2F57192A] [EB43D43F] 04 52,5 [A2266B01] [C0F6FF92] 05 88,6 [EB64ECCD] [3A180419] 06 99,0 [E9C2486A] [FDDDD16B] 07 99,8 [BC3CA4F6] [52B8E1C3]
Производитель диска: Mobile Fidelity / UDCD 621
Продолжительность: 42:25

Трэклист:
01. The Endless Enigma (Part One) (6:42)
02. Fugue (1:57)
03. The Endless Enigma (Part Two) (2:05)
04. From The Beginning (4:17)
05. The Sheriff (3:23)
06. Hoedown (Taken from Rodeo) {Aaron Copland, arranged by Emerson / Lake / Palmer} (3:47)
07. Trilogy (8:54)
08. Living Sin (3:14)
09. Abaddon's Bolero (8:08)
Exact Audio Copy V1.0 beta 3 from 29. August 2011

EAC extraction logfile from 5. September 2012, 23:02

Emerson, Lake & Palmer / Trilogy

Used drive : TEAC CD-W552E Adapter: 1 ID: 0

Read mode : SecureUtilize accurate stream : YesDefeat audio cache : YesMake use of C2 pointers : No

Read offset correction : 6Overread into Lead-In and Lead-Out : NoFill up missing offset samples with silence : YesDelete leading and trailing silent blocks : NoNull samples used in CRC calculations : YesUsed interface : Installed external ASPI interface

Used output format : User Defined EncoderSelected bitrate : 32 kBit/sQuality : LowAdd ID3 tag : NoCommand line compressor : C:\Program Files\Exact Audio Copy\FLAC\FLAC.EXEAdditional command line options : -8 -V -T "ARTIST=%artist%" -T "ALBUM=%albumtitle%" -T "DATE=%year%" -T "GENRE=%genre%" -T "COMMENT=EAC FLAC -8" %source%

TOC of the extracted CD

Track | Start | Length | Start sector | End sector --------------------------------------------------------- 1 | 0:00.00 | 6:44.12 | 0 | 30311 2 | 6:44.12 | 1:54.45 | 30312 | 38906 3 | 8:38.57 | 2:03.25 | 38907 | 48156 4 | 10:42.07 | 4:16.25 | 48157 | 67381 5 | 14:58.32 | 3:22.70 | 67382 | 82601 6 | 18:21.27 | 3:46.08 | 82602 | 99559 7 | 22:07.35 | 8:54.42 | 99560 | 139651 8 | 31:02.02 | 3:13.48 | 139652 | 154174 9 | 34:15.50 | 8:09.50 | 154175 | 190899

Range status and errors

Selected range

Filename C:\Program Files\BitComet\Downloads\Emerson, Lake & Palmer - Trilogy (1972) {MFSL}\Emerson, Lake & Palmer - Trilogy.wav

Peak level 99.9 % Extraction speed 6.2 X Range quality 100.0 % Test CRC 77C3EC7C Copy CRC 77C3EC7C Copy OK

No errors occurred

AccurateRip summary

Track 1 accurately ripped (confidence 4) [631BE9B4] (AR v2)Track 2 accurately ripped (confidence 4) [5956E8DC] (AR v2)Track 3 accurately ripped (confidence 4) [F2B4814F] (AR v2)Track 4 accurately ripped (confidence 4) [836A7E93] (AR v2)Track 5 accurately ripped (confidence 4) [5F86761E] (AR v2)Track 6 accurately ripped (confidence 4) [CAD6A575] (AR v2)Track 7 accurately ripped (confidence 4) [55022345] (AR v2)Track 8 accurately ripped (confidence 4) [DDA9544D] (AR v2)Track 9 accurately ripped (confidence 4) [C1716A13] (AR v2)

All tracks accurately ripped

End of status report

==== Log checksum C8BA909BCBDC3CE76F75C3D94D99DFDD715966B5550B3FD4B26DC4F5A1B1F886 ====
REM GENRE "Progressive Rock"REM DATE 1972REM DISCID 5F09F109REM COMMENT "ExactAudioCopy v1.0b3"PERFORMER "Emerson, Lake & Palmer"TITLE "Trilogy"FILE "Emerson, Lake & Palmer - Trilogy.flac" WAVE TRACK 01 AUDIO TITLE "The Endless Enigma (Part One)" PERFORMER "Emerson, Lake & Palmer" INDEX 01 00:00:00 TRACK 02 AUDIO TITLE "Fugue" PERFORMER "Emerson, Lake & Palmer" INDEX 01 06:44:12 TRACK 03 AUDIO TITLE "The Endless Enigma (Part Two)" PERFORMER "Emerson, Lake & Palmer" INDEX 01 08:38:57 TRACK 04 AUDIO TITLE "From the Beginning" PERFORMER "Emerson, Lake & Palmer" INDEX 00 10:39:34 INDEX 01 10:42:07 TRACK 05 AUDIO TITLE "The Sheriff" PERFORMER "Emerson, Lake & Palmer" INDEX 00 14:55:36 INDEX 01 14:58:32 TRACK 06 AUDIO TITLE "Hoedown" PERFORMER "Emerson, Lake & Palmer" INDEX 00 18:18:22 INDEX 01 18:21:27 TRACK 07 AUDIO TITLE "Trilogy" PERFORMER "Emerson, Lake & Palmer" INDEX 00 22:04:61 INDEX 01 22:07:35 TRACK 08 AUDIO TITLE "Living Sin" PERFORMER "Emerson, Lake & Palmer" INDEX 00 31:00:10 INDEX 01 31:02:02 TRACK 09 AUDIO TITLE "Abaddon's Bolero" PERFORMER "Emerson, Lake & Palmer" INDEX 00 34:14:10 INDEX 01 34:15:50
[CUETools log; Date: 06.09.2012 12:03:49; Version: 2.1.4][CTDB TOCID: hlVihyb61rzs6W5qh3iBaoos3IM-] found.Track | CTDB Status 1 | (3/3) Accurately ripped 2 | (3/3) Accurately ripped 3 | (3/3) Accurately ripped 4 | (3/3) Accurately ripped 5 | (3/3) Accurately ripped 6 | (3/3) Accurately ripped 7 | (3/3) Accurately ripped 8 | (3/3) Accurately ripped 9 | (3/3) Accurately ripped[AccurateRip ID: 000cfebf-006054f7-5f09f109] found.Track [ CRC | V2 ] Status 01 [0da42d29|631be9b4] (22+04/31) Accurately ripped 02 [c2c17796|5956e8dc] (23+04/34) Accurately ripped 03 [a51a5b07|f2b4814f] (22+04/33) Accurately ripped 04 [4401723b|836a7e93] (22+04/33) Accurately ripped 05 [e1e6c89c|5f86761e] (22+04/33) Accurately ripped 06 [b5de5d89|cad6a575] (22+04/33) Accurately ripped 07 [ec670b2b|55022345] (22+04/32) Accurately ripped 08 [95f3c850|dda9544d] (22+04/32) Accurately ripped 09 [6205e29b|c1716a13] (22+04/33) Accurately rippedOffsetted by -997: 01 [631c32bf] (05/31) Accurately ripped 02 [975cd7c5] (05/34) Accurately ripped 03 [ee4af490] (05/33) Accurately ripped 04 [0fc97ce4] (05/33) Accurately ripped 05 [3667d40b] (05/33) Accurately ripped 06 [06615764] (05/33) Accurately ripped 07 [8254d254] (04/32) Accurately ripped 08 [c2f7c8b2] (04/32) Accurately ripped 09 [0eb422ba] (05/33) Accurately rippedOffsetted by -12: 01 [5ee2f190] (00/31) No match (V2 was not tested) 02 [f8161f04] (02/34) Accurately ripped 03 [c542fc6a] (02/33) Accurately ripped 04 [e7b5cbb7] (02/33) Accurately ripped 05 [0b7d01c0] (02/33) Accurately ripped 06 [417e5e7d] (02/33) Accurately ripped 07 [2f2b82a7] (02/32) Accurately ripped 08 [8508a108] (02/32) Accurately ripped 09 [6fe9aeff] (02/33) Accurately ripped

Track Peak [ CRC32 ] [W/O NULL] [ LOG ] -- 99,9 [77C3EC7C] [0C604F7D] CRC32 01 98,1 [98D1CEAF] [9F1E2F83] 02 55,0 [F0E7604E] [94CC4ED6] 03 89,5 [C4AD00EA] [CD5903D2] 04 80,7 [F5ACDFCE] [EC709F41] 05 91,3 [0F84416A] [A32E5A10] 06 98,8 [622B7E80] [1DA274A3] 07 92,3 [22CA3437] [B11964A6] 08 99,9 [03FB4B79] [E01801E6] 09 98,8 [9D9E9099] [1F54DF24]
источник: erro

Трекер:  [ 06-Сен-2012 21:02 ]

  

Скачать .torrent

Размер .torrent файла 14 KB


Размер: 610 MB
Хэш (hash) релиза: 40b0eef1b9b9d7afdfaf072001c000f3056ea6c6

Еще никто не оставлял запись к записи скачать торрент Emerson, Lake & Palmer - Tarkus . Будь первым!

!Обратная связь