Скачать через торрент музыку Steven Anderson - Gypsy Power бесплатно без регистрации torrent

Если у вас наблюдаются проблемы со скриншотами, переходом по ссылками, скачиванием торрентов - проблемы в блокировщике рекламы AdBlock. #хорошегоДня!


Статистика раздачи
Размер:  252 MB   |    Зарегистрирован:  5 лет 1 месяц   |    .torrent скачан:  10 раз   |   
Раздают:  1  
   
Загрузка...
 
Автор Сообщение

Galfimbul

avatar Galfimbul


Steven Anderson / Gypsy Power (1994) (Japan XRCN-1178)

Жанр: Guitar Rock
Страна-производитель диска: Japan
Год издания: 1994
Издатель (лейбл): Psychic Eye Music Entertainment
Номер по каталогу: XRCN-1178
Страна: Sweden
Аудиокодек: FLAC (*.flac)
Тип рипа: image+.cue
Битрейт аудио: lossless
Продолжительность: 00:34:54
Источник (релизер): guzonka
Наличие сканов в содержимом раздачи: да
Треклист:
1 Dance Of The Fortune Teller 4:08
2 The Child Within 7:33
3 Gipsy Fly 6:08
4 Orient Express 4:28
Paw-Kwa And The Great Monade (9:14)
5.1 Preludium
5.2 The Great Monade
5.3 Finale
6 The Scarlet Slapstick 3:17
Exact Audio Copy V1.0 beta 3 from 29. August 2011

Отчёт EAC об извлечении, выполненном 5. сентября 2012, 19:25

Steven Anderson / Gypsy Power

Дисковод: PIONEER DVD-RW DVR-219L Adapter: 0 ID: 0

Режим чтения : ДостоверностьИспользование точного потока : ДаОтключение кэша аудио : ДаИспользование указателей C2 : Нет

Коррекция смещения при чтении : 6Способность читать области Lead-in и Lead-out : НетЗаполнение пропущенных сэмплов тишиной : ДаУдаление блоков с тишиной в начале и конце : НетПри вычислениях CRC использовались нулевые сэмплы : ДаИнтерфейс : Встроенный Win32-интерфейс для Win NT/2000

Выходной формат : Пользовательский кодировщикВыбранный битрейт : 640 kBit/sКачество : ВысокийДобавление ID3-тега : НетУтилита сжатия : C:\Program Files (x86)\Exact Audio Copy\Flac\flac.exeДополнительные параметры : -V -8 -T "Date=%year%" -T "Genre=%genre%" %source%

TOC извлечённого CD

Трек | Старт | Длительность | Начальный сектор | Конечный сектор --------------------------------------------------------------------- 1 | 0:00.00 | 4:09.62 | 0 | 18736 2 | 4:09.62 | 7:33.53 | 18737 | 52764 3 | 11:43.40 | 6:08.27 | 52765 | 80391 4 | 17:51.67 | 4:28.40 | 80392 | 100531 5 | 22:20.32 | 9:14.53 | 100532 | 142134 6 | 31:35.10 | 3:19.45 | 142135 | 157104

Характеристики диапазона извлечения и сообщения об ошибках

Выбранный диапазон

Имя файла E:\dvda\Steven Anderson - Gypsy Power.wav

Пиковый уровень 100.0 % Скорость извлечения 1.4 X Качество диапазона 100.0 % CRC теста AD0D8DE5 CRC копии AD0D8DE5 Копирование... OK

Ошибок не произошло

Конец отчёта

==== Контрольная сумма отчёта C6406658759396D91FB5B43BB985D9AED6FC570F5AF37F9C698E87E1F8FFCD24 ====


Трекер:  [ 06-Сен-2012 21:02 ]

  

Скачать .torrent

Размер .torrent файла 20 KB


Размер: 252 MB
Хэш (hash) релиза: b38f0d6a9efb31ea3293d26039e60f38c7f1b600

Еще никто не оставлял запись к записи скачать торрент Steven Anderson - Gypsy Power . Будь первым!

!Обратная связь