Скачать через торрент музыку Roxy Music - 1973 - For Your Pleasure бесплатно без регистрации torrent

Если у вас наблюдаются проблемы со скриншотами, переходом по ссылками, скачиванием торрентов - проблемы в блокировщике рекламы AdBlock. #хорошегоДня!


Статистика раздачи
Размер:  376 MB   |    Зарегистрирован:  5 лет 2 месяца   |    .torrent скачан:  12 раз   |   
Раздают:  1  
   
Загрузка...
 
Автор Сообщение

Galfimbul

avatar Galfimbul


ROXY MUSIC FOR YOUR PLEASURE...
Жанр: Art-Prog-Rock
Дата выпуска: 23 March 1973
Страна-производитель диска: UK
Издатель: E.G., EGCD 8, 257 945 (198?)
Страна: UK
Аудио кодек: FLAC (*.flac)
Тип рипа: image+.cue
Битрейт аудио: lossless
Продолжительность: 42:11
Источник (релизер): собственный рип
Наличие сканов в содержимом раздачи: 600 dpi .png
1. Do the Strand 4:04
2. Beauty Queen 4:39
3. Strictly Confidential 3:47
4. Editions of You 3:49
5. In every Dream Home a Heartache 5:27
6. The Bogus Man 9:19
7. Grey Lagoons 4:12
8. For Your Pleasure 6:51
Bryan Ferry – Voice and Keyboards
Andrew Mackay – Oboe and Saxophone
Eno – Synthesizer and Tapes
Paul Thompson – Drums
Phil Manzanera – Guitar

John Porter – Bass

Produced by Chris Thomas and Roxy Music

Exact Audio Copy V1.0 beta 3 from 29. August 2011

EAC extraction logfile from 28. August 2012, 20:29

Roxy Music / For Your Pleasure (EGCD 8)

Used drive : HL-DT-STDVDRAM GE20NU11 Adapter: 0 ID: 1

Read mode : SecureUtilize accurate stream : YesDefeat audio cache : YesMake use of C2 pointers : No

Read offset correction : 667Overread into Lead-In and Lead-Out : NoFill up missing offset samples with silence : YesDelete leading and trailing silent blocks : NoNull samples used in CRC calculations : YesUsed interface : Native Win32 interface for Win NT & 2000

Used output format : User Defined EncoderSelected bitrate : 896 kBit/sQuality : HighAdd ID3 tag : NoCommand line compressor : C:\Program Files\EAC 3\Exact Audio Copy\Flac\flac.exeAdditional command line options : -V -8 %source%

TOC of the extracted CD

Track | Start | Length | Start sector | End sector --------------------------------------------------------- 1 | 0:00.00 | 4:04.15 | 0 | 18314 2 | 4:04.15 | 4:39.00 | 18315 | 39239 3 | 8:43.15 | 3:47.35 | 39240 | 56299 4 | 12:30.50 | 3:49.15 | 56300 | 73489 5 | 16:19.65 | 5:27.72 | 73490 | 98086 6 | 21:47.62 | 9:19.40 | 98087 | 140051 7 | 31:07.27 | 4:12.58 | 140052 | 159009 8 | 35:20.10 | 6:51.25 | 159010 | 189859

Range status and errors

Selected range

Filename C:\OdW\Roxy Music (1973) For Your Pleasure (EGCD 8)\Roxy Music - For Your Pleasure (EGCD 8).wav

Peak level 100.0 % Extraction speed 1.6 X Range quality 100.0 % Test CRC 5AD13994 Copy CRC 5AD13994 Copy OK

No errors occurred

AccurateRip summary

Track 1 accurately ripped (confidence 2) [B19A154B] (AR v2)Track 2 accurately ripped (confidence 2) [C6C0367D] (AR v2)Track 3 accurately ripped (confidence 2) [CCBF389A] (AR v2)Track 4 accurately ripped (confidence 2) [5407B497] (AR v2)Track 5 accurately ripped (confidence 2) [AA54C1EC] (AR v2)Track 6 accurately ripped (confidence 2) [1A9AC82D] (AR v2)Track 7 accurately ripped (confidence 2) [360E612F] (AR v2)Track 8 accurately ripped (confidence 2) [F5D5B46E] (AR v2)

All tracks accurately ripped

End of status report

==== Log checksum 84842EE572B76595D3C38AE9992545EC0A676A12891C6AD892695C30E4F1B327 ====
REM GENRE RockREM DATE 1973REM DISCID 6609E308REM COMMENT "ExactAudioCopy v1.0b3"PERFORMER "Roxy Music"TITLE "For Your Pleasure (EGCD 8)"FILE "Roxy Music - For Your Pleasure (EGCD 8).flac" WAVE TRACK 01 AUDIO TITLE "Do the strand" PERFORMER "Roxy Music" INDEX 01 00:00:00 TRACK 02 AUDIO TITLE "Beauty queen" PERFORMER "Roxy Music" INDEX 00 03:59:35 INDEX 01 04:04:15 TRACK 03 AUDIO TITLE "Strictly confidential" PERFORMER "Roxy Music" INDEX 00 08:39:27 INDEX 01 08:43:15 TRACK 04 AUDIO TITLE "Editions of you" PERFORMER "Roxy Music" INDEX 00 12:27:07 INDEX 01 12:30:50 TRACK 05 AUDIO TITLE "In every dream home a heartache" PERFORMER "Roxy Music" INDEX 00 16:16:01 INDEX 01 16:19:65 TRACK 06 AUDIO TITLE "The bogus man" PERFORMER "Roxy Music" INDEX 00 21:45:20 INDEX 01 21:47:62 TRACK 07 AUDIO TITLE "Grey lagoons" PERFORMER "Roxy Music" INDEX 01 31:07:27 TRACK 08 AUDIO TITLE "For your pleasure" PERFORMER "Roxy Music" INDEX 00 35:17:52 INDEX 01 35:20:10
[CUETools log; Date: 28.08.2012 23:08:20; Version: 2.1.4][CTDB TOCID: l8dFYZsrkeX8A99u0Cngj8qIytc-] found.Track | CTDB Status 1 | (6/6) Accurately ripped 2 | (6/6) Accurately ripped 3 | (6/6) Accurately ripped 4 | (6/6) Accurately ripped 5 | (6/6) Accurately ripped 6 | (5/6) Accurately ripped 7 | (5/6) Accurately ripped 8 | (5/6) Accurately ripped[AccurateRip ID: 000bd0d2-0050d243-6609e308] found.Track [ CRC | V2 ] Status 01 [a532d986|b19a154b] (07+02/39) Accurately ripped 02 [ea0ba0e8|c6c0367d] (07+02/37) Accurately ripped 03 [0eda9af6|ccbf389a] (07+02/39) Accurately ripped 04 [17d5ad6b|5407b497] (07+02/38) Accurately ripped 05 [9e19b1bd|aa54c1ec] (07+02/37) Accurately ripped 06 [befa7c37|1a9ac82d] (07+02/38) Accurately ripped 07 [fa35627d|360e612f] (06+02/37) Accurately ripped 08 [6df40cab|f5d5b46e] (05+02/33) Accurately rippedOffsetted by 323: 01 [aaf58433] (19/39) Accurately ripped 02 [6296269f] (19/37) Accurately ripped 03 [d606a318] (19/39) Accurately ripped 04 [15c9e6cc] (19/38) Accurately ripped 05 [725c120b] (19/37) Accurately ripped 06 [d33ed1bc] (19/38) Accurately ripped 07 [ee9071c5] (19/37) Accurately ripped 08 [bd7b90c4] (17/33) Accurately rippedOffsetted by -233: 01 [97cac566] (02/39) Accurately ripped 02 [2c457b68] (00/37) No match (V2 was not tested) 03 [b3f5eb79] (02/39) Accurately ripped 04 [1620c01f] (02/38) Accurately ripped 05 [1cb9333f] (00/37) No match (V2 was not tested) 06 [2ee0c772] (00/38) No match (V2 was not tested) 07 [833c6e62] (00/37) No match (V2 was not tested) 08 [47e2fde1] (00/33) No match (V2 was not tested)

Track Peak [ CRC32 ] [W/O NULL] [ LOG ] -- 100,0 [5AD13994] [081607E8] CRC32 01 99,8 [C1033B37] [C497369E] 02 95,0 [5DE1FB77] [CAB4AC41] 03 84,3 [B2D161ED] [33FE57FD] 04 98,5 [897275D1] [51EB0841] 05 89,9 [0DDAE958] [32CB44F8] 06 99,9 [3BCF9739] [EF561A3C] 07 100,0 [5614F43F] [BBCFD66D] 08 100,0 [0B2F0D28] [EF9E2DFF]



Трекер:  [ 06-Сен-2012 21:01 ]

  

Скачать .torrent

Размер .torrent файла 31 KB


Размер: 376 MB
Хэш (hash) релиза: 3f56cbdef2481088dedfc7f529e789ccb9254132

Торренты, похожие на Roxy Music - 1973 - For Your Pleasure скачать торрент

Форум Название Автор Размер S L Добавлен
Rосk | Mеtаl | Аltеrnаtivе, Рunk, Indереndеnt (losslеss) ·· (Rock) Roxy Music - For Your Pleasure - 1973, FLAC (tracks+.cue), lossless Galfimbul 339620703324 MB 0 0 1297875553

19:59

16-Фев-11

Еще никто не оставлял запись к записи скачать торрент Roxy Music - 1973 - For Your Pleasure . Будь первым!

!Обратная связь