Скачать через торрент музыку VA - VA - An All-Star Tribute To Supertramp - Song Of The Century - 2012, FLAC бесплатно без регистрации torrent

Если у вас наблюдаются проблемы со скриншотами, переходом по ссылками, скачиванием торрентов - проблемы в блокировщике рекламы AdBlock. #хорошегоДня!


Статистика раздачи
Размер:  482 MB   |    Зарегистрирован:  4 года 11 месяцев   |    .torrent скачан:  31 раз   |   
Раздают:  1  
   
Загрузка...
 
Автор Сообщение

Galfimbul

avatar Galfimbul


VA - An All-Star Tribute To Supertramp / Song Of The Century

Жанр: Progressive & Art-Rock
Страна-производитель диска: Россия
Год издания: 2012
Издатель (лейбл): Пират
Аудиокодек: FLAC (*.flac)
Тип рипа: image+.cue
Битрейт аудио: lossless
Продолжительность: 62'48''
Источник (релизер): Диск и рип - свои
Наличие сканов в содержимом раздачи: да
Треклист:
CD: An All-Star Tribute To Supertramp - Song Of The Century

01. John Wetton / Breakfast In America [0:03:51.74]
02. John Wesley / Take The Long Way Home [0:05:04.51]
03. Mickey Thomas / The Logical Song [0:04:25.25]
04. Richard Page / Give A Little Bit [0:05:14.29]
05. Colin Moulding / It's Raining Again [0:04:51.01]
06. Billy Sherwood / Crime Of The Century [0:06:19.45]
07. Annie Haslam / Dreamer [0:04:29.74]
08. Billy Sherwood / Goodbye Stranger [0:06:26.00]
09. Roye Albrighton / Rudy [0:06:23.01]
10. Joe Lynn Turner / Bloody Well Right [0:05:10.59]
11. Rod Argent / School [0:05:45.16]
12. Chris Squire / Let The World Revolve (Bonus Original Track) [0:04:44.18]
Exact Audio Copy V1.0 beta 3 from 29. August 2011

Отчёт EAC об извлечении, выполненном 5. сентября 2012, 10:20

An All-Star Tribute To Supertramp / Song Of The Century

Дисковод: PLEXTOR DVDR PX-750A Adapter: 1 ID: 1

Режим чтения : ДостоверностьИспользование точного потока : ДаОтключение кэша аудио : ДаИспользование указателей C2 : Нет

Коррекция смещения при чтении : 102Способность читать области Lead-in и Lead-out : НетЗаполнение пропущенных сэмплов тишиной : ДаУдаление блоков с тишиной в начале и конце : НетПри вычислениях CRC использовались нулевые сэмплы : ДаИнтерфейс : Встроенный Win32-интерфейс для Win NT/2000

Выходной формат : Пользовательский кодировщикВыбранный битрейт : 896 kBit/sКачество : ВысокийДобавление ID3-тега : ДаУтилита сжатия : C:\Program Files\Exact Audio Copy\FLAC\FLAC.EXEДополнительные параметры : -6 -V -T "ARTIST=%artist%" -T "TITLE=%title%" -T "ALBUM=%albumtitle%" -T "DATE=%year%" -T "TRACKNUMBER=%tracknr%" -T "GENRE=%genre%" -T "COMMENT=%comment%" -T "BAND=%albuminterpret%" -T "ALBUMARTIST=%albuminterpret%" -T "COMPOSER=%composer%" %haslyrics%--tag-from-file=LYRICS="%lyricsfile%"%haslyrics% -T "DISCNUMBER=%cdnumber%" -T "TOTALDISCS=%totalcds%" -T "TOTALTRACKS=%numtracks%" %hascover%--picture="%coverfile%"%hascover% %source% -o %dest%

TOC извлечённого CD

Трек | Старт | Длительность | Начальный сектор | Конечный сектор --------------------------------------------------------------------- 1 | 0:00.00 | 3:51.74 | 0 | 17398 2 | 3:51.74 | 5:04.51 | 17399 | 40249 3 | 8:56.50 | 4:25.25 | 40250 | 60149 4 | 13:22.00 | 5:14.29 | 60150 | 83728 5 | 18:36.29 | 4:51.01 | 83729 | 105554 6 | 23:27.30 | 6:19.45 | 105555 | 134024 7 | 29:47.00 | 4:29.74 | 134025 | 154273 8 | 34:16.74 | 6:26.00 | 154274 | 183223 9 | 40:42.74 | 6:23.01 | 183224 | 211949 10 | 47:06.00 | 5:10.59 | 211950 | 235258 11 | 52:16.59 | 5:45.16 | 235259 | 261149 12 | 58:02.00 | 4:44.18 | 261150 | 282467

Характеристики диапазона извлечения и сообщения об ошибках

Выбранный диапазон

Имя файла C:\Documents and Settings\Admin\Рабочий стол\An All-Star Tribute To Supertramp - Song Of The Century - 2012 - 62'48''\An All-Star Tribute To Supertramp - Song Of The Century.wav

Пиковый уровень 100.0 % Скорость извлечения 7.7 X Качество диапазона 100.0 % CRC теста AA44A557 CRC копии AA44A557 Копирование... OK

Ошибок не произошло

Конец отчёта

==== Контрольная сумма отчёта ABDDA58DC4889C446FB210F075E44278806E37A4F3E35C5E9A660E9B5692F98A ====
-----------------------

DON'T MODIFY THIS FILE

-----------------------

PERFORMER: auCDtect Task Manager, ver. 1.5.1RC4 build 1.5.1.5Copyright (c) 2008-2010 y-soft. All rights reservedhttp://y-soft.org

ANALYZER: auCDtect: CD records authenticity detector, version 0.8.2Copyright (c) 2004 Oleg Berngardt. All rights reserved.Copyright (c) 2004 Alexander Djourik. All rights reserved.

FILE: An All-Star Tribute To Supertramp - Song Of The Century.flac Size: 437649124 Hash: 19A629B9C1A8A07716DBC5FB840F377E Accuracy: -m0 Conclusion: CDDA 100% Signature: 248DAC59D8C7980A4A36B3771D420756D1A4227A
Доп. информация: Трибьютник классный! Всем поклонникам Супертрэмп и мелодичного арт-рока!
Теперь в качестве!
Вокалистов смотрим в трэк-листе!
Основной состав музыкантов - на коврах!


Трекер:  [ 06-Сен-2012 21:01 ]

  

Скачать .torrent

Размер .torrent файла 20 KB


Размер: 482 MB
Хэш (hash) релиза: ece0ec9019f00da3bce0723408b983a5d537000c

Еще никто не оставлял запись к записи скачать торрент VA - VA - An All-Star Tribute To Supertramp - Song Of The Century - 2012, FLAC . Будь первым!

!Обратная связь