Скачать через торрент Нaпролом Lоckout бесплатно русская версия torrent активатор

Если у вас наблюдаются проблемы со скриншотами, переходом по ссылками, скачиванием торрентов - проблемы в блокировщике рекламы AdBlock. #хорошегоДня!


Статистика раздачи
Размер:  10.07 GB   |    Зарегистрирован:  5 лет 1 месяц   |    .torrent скачан:  64 раза   |   
Раздают:  1  
   
Загрузка...
 
Автор Сообщение

L


Напролом / Lockout [UNRATED]

Год выпуска: 2012
Страна: Франция
Жанр: фантастика, боевик, триллер
Продолжительность: 01:35:20
Перевод: Дубляж
Субтитры: Русские(Full), Английские
Навигация:по главам (с изображениями)

Режиссер: Джеймс Мэтер, Стивен Ст. Леджер

В ролях: Гай Пирс, Мэгги Грэйс, Винсент Риган, Джозеф Гилган, Ленни Джеймс, Петер Стормаре, Джеки Идо, Тим Плестер, Марк Танкерсли, Энн-Соленн Хатте

Описание: Орбитальная станция MS1 — крупнейшая космическая тюрьма, где в анабиозе содержатся тысячи опасных преступников. Ходят слухи, что над погруженными в искусственный сон узниками проводятся противозаконные эксперименты. С расследованием на станцию отправлена комиссия во главе с Эмили Уорнок, дочерью президента США.

Неожиданно ситуация выходит из-под контроля, и вся станция оказывается захвачена уголовниками. Спецагент Сноу, несправедливо обвиненный в государственной измене, получает задание проникнуть в самую неприступную тюрьму во Вселенной и спасти Эмили. Это его единственный шанс вернуть себе доброе имя и получить свободу.

«В одиночку против 500. В чем проблема?»

Формат: MP4(контейнер m4v)Исходник:BDRemux 1080p
Видео:
Full HD: H.264, 1920 x 800px , 23.976 fps ~7000 kbps avg
HD: H.264, 1280 x 536px , 23.976 fps ~3900 kbps avg
SD: H.264, 640 x 352px , 23.976 fps ~1500 kbps avg
Аудио: Русский (2.0 и 5.1), Английский (2.0 и 5.1)

6.561 / 10
* * * MediaInspector for Mac - Version 2.0, build 896
* * * ©2012 by Diego Massanti
* * * MediaInfo Lib by Jerome Martinez
* * * Raw File Report for Lockout HD1080p.m4v

General
Complete name : /Volumes/Media/Convert/Lockout HD1080p.m4v
Format : MPEG-4
Format profile : Base Media / Version 2
Codec ID : mp42
File size : 5.43 GiB
Duration : 1h 35mn
Overall bit rate : 8 158 Kbps
Movie name : Lockout (Unrated)
Performer : Stephen Saint Leger & James Mather
Genre : Action & Adventure
Recorded date : UTC 2012-04-07 07:00:00
Encoded date : UTC 2012-07-15 20:34:46
Tagged date : UTC 2012-07-16 16:57:04
Copyright : � 2011 EuropaCorp. All Rights Reserved.
Cover : Yes
desc : ??????????? ??????? MS1 ? ?????????? ??????????? ??????, ??? ? ???????? ?????????? ?????? ??????? ????????????. ????? ?????, ??? ??? ???????????? ? ????????????? ??? ???????? ?????????? ??????????????? ????????????. ? ?????????????? ?? ??????? ?????????? ???????? ?? ????? ? ????? ??????, ??????? ?????????? ???...
ldes : ??????????? ??????? MS1 ? ?????????? ??????????? ??????, ??? ? ???????? ?????????? ?????? ??????? ????????????. ????? ?????, ??? ??? ???????????? ? ????????????? ??? ???????? ?????????? ??????????????? ????????????. ? ?????????????? ?? ??????? ?????????? ???????? ?? ????? ? ????? ??????, ??????? ?????????? ???...
hdvd : 2
stik : 9
rtng : 0
cnID : 540138002
xid : RG-ATV:vendor_id:2012-496888
iTunEXTC : fr-movie|Unrated|???|
iTunMOVI : <?xml version="1.0" encoding="UTF-8"?> / <!DOCTYPE plist PUBLIC "-//Apple//DTD PLIST 1.0//EN" "http://www.apple.com/DTDs/PropertyList-1.0.dtd"> / <plist version="1.0"> / <dict> / <key>cast</key> / <array> / <dict> / <key>name</key> / <string>??? ????</string> / </dict> / <dict> / <key>name</key> / <string>????? ?????</string> / </dict> / <dict> / <key>name</key> / <string>??????? ?????</string> / </dict> / <dict> / <key>name</key> / <string>?????? ??????</string> / </dict> / <dict> / <key>name</key> / <string>????? ??????</string> / </dict> / <dict> / <key>name</key> / <string>????? ????????</string> / </dict> / <dict> / <key>name</key> / <string>????? ???</string> / </dict> / <dict> / <key>name</key> / <string>??? ???????</string> / </dict> / <dict> / <key>name</key> / <string>???? ?????????</string> / </dict> / <dict> / <key>name</key> / <string>???-?????? ?????</string> / </dict> / </array> / <key>directors</key> / <array> / <dict> / <key>name</key> / <string>?????? ?????</string> / </dict> / <dict> / <key>name</key> / <string>?????? ??. ??????</string> / </dict> / </array> / <key>producers</key> / <array> / <dict> / <key>name</key> / <string>??? ??????</string> / </dict> / </array> / <key>screenwriters</key> / <array> / <dict> / <key>name</key> / <string>?????? ?????</string> / </dict> / <dict> / <key>name</key> / <string>?????? ??. ??????</string> / </dict> / </array> / </dict> / </plist>

Video #1
ID : 1
Format : AVC
Format/Info : Advanced Video Codec
Format profile : <a href="mailto:High@L4.0" class="postLink">High@L4.0</a>
Format settings, CABAC : Yes
Format settings, ReFrames : 4 frames
Codec ID : avc1
Codec ID/Info : Advanced Video Coding
Duration : 1h 35mn
Bit rate mode : Variable
Bit rate : 6 921 Kbps
Width : 1 920 pixels
Height : 800 pixels
Display aspect ratio : 2.40:1
Frame rate mode : Variable
Frame rate : 23.976 fps
Minimum frame rate : 23.974 fps
Maximum frame rate : 23.981 fps
Color space : YUV
Chroma subsampling : 4:2:0
Bit depth : 8 bits
Scan type : Progressive
Bits/(Pixel*Frame) : 0.188
Stream size : 4.61 GiB (85%)
Writing library : x264 core 120
Encoding settings : cabac=1 / ref=4 / deblock=1:1:0 / analyse=0x3:0x133 / me=umh / subme=10 / psy=1 / psy_rd=0.70:0.00 / mixed_ref=1 / me_range=32 / chroma_me=1 / trellis=2 / 8x8dct=1 / cqm=0 / deadzone=21,11 / fast_pskip=0 / chroma_qp_offset=-2 / threads=12 / sliced_threads=0 / nr=0 / decimate=0 / interlaced=0 / bluray_compat=0 / constrained_intra=0 / bframes=4 / b_pyramid=2 / b_adapt=2 / b_bias=0 / direct=3 / weightb=1 / open_gop=0 / weightp=2 / keyint=240 / keyint_min=24 / scenecut=40 / intra_refresh=0 / rc_lookahead=40 / rc=crf / mbtree=0 / crf=19.0 / qcomp=0.60 / qpmin=0 / qpmax=69 / qpstep=4 / vbv_maxrate=25000 / vbv_bufsize=25000 / crf_max=0.0 / nal_hrd=none / ip_ratio=1.40 / pb_ratio=1.30 / aq=1:1.00
Language : English
Encoded date : UTC 2012-07-15 20:34:46
Tagged date : UTC 2012-07-16 01:52:54
Color primaries : BT.709-5, BT.1361, IEC 61966-2-4, SMPTE RP177
Transfer characteristics : BT.709-5, BT.1361
Matrix coefficients : BT.709-5, BT.1361, IEC 61966-2-4 709, SMPTE RP177

Video #2
ID : 9
Format : JPEG
Codec ID : jpeg
Duration : 1h 28mn
Bit rate mode : Variable
Bit rate : 737 bps
Width : 640 pixels
Height : 266 pixels
Display aspect ratio : 2.40:1
Frame rate mode : Variable
Frame rate : 0.003 fps
Minimum frame rate : 0.001 fps
Maximum frame rate : 0.004 fps
Compression mode : Lossy
Bits/(Pixel*Frame) : 1.443
Stream size : 480 KiB (0%)
Language : English
Encoded date : UTC 2012-07-16 16:51:31
Tagged date : UTC 2012-07-16 16:51:32

Audio #1
ID : 2
Format : AAC
Format/Info : Advanced Audio Codec
Format profile : LC
Codec ID : 40
Duration : 1h 35mn
Bit rate mode : Variable
Bit rate : 164 Kbps
Maximum bit rate : 261 Kbps
Channel(s) : 2 channels
Channel positions : Front: L R
Sampling rate : 48.0 KHz
Compression mode : Lossy
Stream size : 112 MiB (2%)
Language : Russian
Encoded date : UTC 2012-07-16 16:51:09
Tagged date : UTC 2012-07-16 16:51:11

Audio #2
ID : 3
Format : AAC
Format/Info : Advanced Audio Codec
Format profile : LC
Codec ID : 40
Duration : 1h 35mn
Bit rate mode : Variable
Bit rate : 165 Kbps
Maximum bit rate : 268 Kbps
Channel(s) : 2 channels
Channel positions : Front: L R
Sampling rate : 48.0 KHz
Compression mode : Lossy
Stream size : 112 MiB (2%)
Language : English
Encoded date : UTC 2012-07-16 16:51:09
Tagged date : UTC 2012-07-16 16:51:13

Audio #3
ID : 4
Format : AC-3
Format/Info : Audio Coding 3
Mode extension : CM (complete main)
Codec ID : ac-3
Duration : 1h 35mn
Bit rate mode : Constant
Bit rate : 448 Kbps
Channel(s) : 6 channels
Channel positions : Front: L C R, Side: L R, LFE
Sampling rate : 48.0 KHz
Bit depth : 16 bits
Compression mode : Lossy
Stream size : 305 MiB (5%)
Language : Russian
Encoded date : UTC 2012-07-16 16:51:09
Tagged date : UTC 2012-07-16 16:51:17

Audio #4
ID : 5
Format : AC-3
Format/Info : Audio Coding 3
Mode extension : CM (complete main)
Codec ID : ac-3
Duration : 1h 35mn
Bit rate mode : Constant
Bit rate : 448 Kbps
Channel(s) : 6 channels
Channel positions : Front: L C R, Side: L R, LFE
Sampling rate : 48.0 KHz
Bit depth : 16 bits
Compression mode : Lossy
Stream size : 305 MiB (5%)
Language : English
Encoded date : UTC 2012-07-16 16:51:09
Tagged date : UTC 2012-07-16 16:51:21

Text #1
ID : 6
Format : Timed text
Muxing mode : sbtl
Codec ID : tx3g
Duration : 1h 30mn
Bit rate mode : Variable
Bit rate : 111 bps
Stream size : 73.6 KiB (0%)
Language : Russian
Encoded date : UTC 2012-07-16 16:51:09
Tagged date : UTC 2012-07-16 16:51:21

Text #2
ID : 7
Format : Timed text
Muxing mode : sbtl
Codec ID : tx3g
Duration : 1h 30mn
Bit rate mode : Variable
Bit rate : 79 bps
Stream size : 52.5 KiB (0%)
Language : English
Encoded date : UTC 2012-07-16 16:51:09
Tagged date : UTC 2012-07-16 16:51:21

Text #3
ID : 8
Format : Apple text
Codec ID : text
Duration : 1h 35mn
Bit rate mode : Variable
Bit rate : 1 bps
Stream size : 375 Bytes (0%)
Language : English
Encoded date : UTC 2012-07-16 16:51:21
Tagged date : UTC 2012-07-16 16:51:21

Menu
00:00:00.000 : Chapter 1
00:05:26.200 : Chapter 2
00:10:16.991 : Chapter 3
00:15:19.918 : Chapter 4
00:22:28.972 : Chapter 5
00:29:18.089 : Chapter 6
00:35:32.839 : Chapter 7
00:40:14.662 : Chapter 8
00:45:55.919 : Chapter 9
00:50:47.961 : Chapter 10
00:55:28.575 : Chapter 11
01:00:47.727 : Chapter 12
01:05:55.868 : Chapter 13
01:12:04.778 : Chapter 14
01:17:49.289 : Chapter 15
01:22:34.949 : Chapter 16
x264 [info]: frame I:1737 Avg QP:15.16 size:133236 PSNR Mean Y:48.30 U:50.56 V:49.77 Avg:48.82 Global:48.50
x264 [info]: frame P:38618 Avg QP:17.16 size: 64437 PSNR Mean Y:47.31 U:50.45 V:49.56 Avg:48.01 Global:47.52
x264 [info]: frame B:96780 Avg QP:20.07 size: 23028 PSNR Mean Y:46.04 U:49.69 V:48.54 Avg:46.81 Global:46.37
x264 [info]: consecutive B-frames: 4.8% 6.2% 10.2% 47.2% 31.6%
x264 [info]: mb I I16..4: 7.0% 82.6% 10.4%
x264 [info]: mb P I16..4: 3.5% 23.5% 1.6% P16..4: 37.8% 18.6% 8.7% 0.3% 0.0% skip: 5.8%
x264 [info]: mb B I16..4: 0.4% 2.0% 0.1% B16..8: 46.7% 11.1% 2.1% direct: 5.1% skip:32.6% L0:46.0% L1:47.5% BI: 6.5%
x264 [info]: 8x8 transform intra:81.8% inter:67.3%
x264 [info]: direct mvs spatial:100.0% temporal:0.0%
x264 [info]: coded y,uvDC,uvAC intra: 82.5% 82.5% 63.2% inter: 25.2% 25.8% 10.3%
x264 [info]: i16 v,h,dc,p: 29% 15% 11% 44%
x264 [info]: i8 v,h,dc,ddl,ddr,vr,hd,vl,hu: 9% 9% 10% 10% 13% 11% 13% 11% 14%
x264 [info]: i4 v,h,dc,ddl,ddr,vr,hd,vl,hu: 10% 12% 7% 10% 14% 12% 13% 9% 13%
x264 [info]: i8c dc,h,v,p: 44% 22% 18% 16%
x264 [info]: Weighted P-Frames: Y:4.3% UV:3.0%
x264 [info]: ref P L0: 54.7% 6.6% 25.4% 11.4% 1.9% 0.1%
x264 [info]: ref B L0: 85.6% 11.4% 3.0%
x264 [info]: ref B L1: 92.9% 7.1%
x264 [info]: SSIM Mean Y:0.9836467 (17.864db)
x264 [info]: PSNR Mean Y:46.425 U:49.917 V:48.847 Avg:47.173 Global:46.688 kb/s:6921.37
* * * MediaInspector for Mac - Version 2.0, build 896
* * * ©2012 by Diego Massanti
* * * MediaInfo Lib by Jerome Martinez
* * * Raw File Report for Lockout HD720p.m4v

General
Complete name : /Volumes/Media/Convert/Lockout HD720p.m4v
Format : MPEG-4
Format profile : Base Media / Version 2
Codec ID : mp42
File size : 3.42 GiB
Duration : 1h 35mn
Overall bit rate : 5 133 Kbps
Movie name : Lockout (Unrated)
Performer : Stephen Saint Leger & James Mather
Genre : Action & Adventure
Recorded date : UTC 2012-04-07 07:00:00
Encoded date : UTC 2012-07-16 07:53:23
Tagged date : UTC 2012-07-16 16:53:53
Copyright : � 2011 EuropaCorp. All Rights Reserved.
Cover : Yes
desc : ??????????? ??????? MS1 ? ?????????? ??????????? ??????, ??? ? ???????? ?????????? ?????? ??????? ????????????. ????? ?????, ??? ??? ???????????? ? ????????????? ??? ???????? ?????????? ??????????????? ????????????. ? ?????????????? ?? ??????? ?????????? ???????? ?? ????? ? ????? ??????, ??????? ?????????? ???...
ldes : ??????????? ??????? MS1 ? ?????????? ??????????? ??????, ??? ? ???????? ?????????? ?????? ??????? ????????????. ????? ?????, ??? ??? ???????????? ? ????????????? ??? ???????? ?????????? ??????????????? ????????????. ? ?????????????? ?? ??????? ?????????? ???????? ?? ????? ? ????? ??????, ??????? ?????????? ???...
hdvd : 1
stik : 9
rtng : 0
cnID : 540138002
xid : RG-ATV:vendor_id:2012-496888
iTunEXTC : fr-movie|Unrated|???|
iTunMOVI : <?xml version="1.0" encoding="UTF-8"?> / <!DOCTYPE plist PUBLIC "-//Apple//DTD PLIST 1.0//EN" "http://www.apple.com/DTDs/PropertyList-1.0.dtd"> / <plist version="1.0"> / <dict> / <key>cast</key> / <array> / <dict> / <key>name</key> / <string>??? ????</string> / </dict> / <dict> / <key>name</key> / <string>????? ?????</string> / </dict> / <dict> / <key>name</key> / <string>??????? ?????</string> / </dict> / <dict> / <key>name</key> / <string>?????? ??????</string> / </dict> / <dict> / <key>name</key> / <string>????? ??????</string> / </dict> / <dict> / <key>name</key> / <string>????? ????????</string> / </dict> / <dict> / <key>name</key> / <string>????? ???</string> / </dict> / <dict> / <key>name</key> / <string>??? ???????</string> / </dict> / <dict> / <key>name</key> / <string>???? ?????????</string> / </dict> / <dict> / <key>name</key> / <string>???-?????? ?????</string> / </dict> / </array> / <key>directors</key> / <array> / <dict> / <key>name</key> / <string>?????? ?????</string> / </dict> / <dict> / <key>name</key> / <string>?????? ??. ??????</string> / </dict> / </array> / <key>producers</key> / <array> / <dict> / <key>name</key> / <string>??? ??????</string> / </dict> / </array> / <key>screenwriters</key> / <array> / <dict> / <key>name</key> / <string>?????? ?????</string> / </dict> / <dict> / <key>name</key> / <string>?????? ??. ??????</string> / </dict> / </array> / </dict> / </plist>

Video #1
ID : 1
Format : AVC
Format/Info : Advanced Video Codec
Format profile : <a href="mailto:High@L3.1" class="postLink">High@L3.1</a>
Format settings, CABAC : No
Format settings, ReFrames : 3 frames
Codec ID : avc1
Codec ID/Info : Advanced Video Coding
Duration : 1h 35mn
Bit rate mode : Variable
Bit rate : 3 900 Kbps
Width : 1 280 pixels
Height : 536 pixels
Display aspect ratio : 2.35:1
Frame rate mode : Variable
Frame rate : 23.976 fps
Minimum frame rate : 23.974 fps
Maximum frame rate : 23.981 fps
Color space : YUV
Chroma subsampling : 4:2:0
Bit depth : 8 bits
Scan type : Progressive
Bits/(Pixel*Frame) : 0.237
Stream size : 2.59 GiB (76%)
Writing library : x264 core 120
Encoding settings : cabac=0 / ref=3 / deblock=1:0:0 / analyse=0x3:0x113 / me=umh / subme=9 / psy=1 / psy_rd=1.00:0.00 / mixed_ref=1 / me_range=32 / chroma_me=1 / trellis=0 / 8x8dct=1 / cqm=0 / deadzone=21,11 / fast_pskip=1 / chroma_qp_offset=-2 / threads=12 / sliced_threads=0 / nr=0 / decimate=0 / interlaced=0 / bluray_compat=0 / constrained_intra=0 / bframes=3 / b_pyramid=0 / b_adapt=2 / b_bias=0 / direct=3 / weightb=0 / open_gop=0 / weightp=0 / keyint=240 / keyint_min=24 / scenecut=40 / intra_refresh=0 / rc_lookahead=40 / rc=2pass / mbtree=1 / bitrate=3900 / ratetol=1.0 / qcomp=0.60 / qpmin=3 / qpmax=69 / qpstep=4 / cplxblur=20.0 / qblur=0.5 / vbv_maxrate=9500 / vbv_bufsize=9500 / nal_hrd=none / ip_ratio=1.40 / aq=1:1.00
Language : English
Encoded date : UTC 2012-07-16 07:53:23
Tagged date : UTC 2012-07-16 09:49:49
Color primaries : BT.709-5, BT.1361, IEC 61966-2-4, SMPTE RP177
Transfer characteristics : BT.709-5, BT.1361
Matrix coefficients : BT.709-5, BT.1361, IEC 61966-2-4 709, SMPTE RP177

Video #2
ID : 9
Format : JPEG
Codec ID : jpeg
Duration : 1h 28mn
Bit rate mode : Variable
Bit rate : 745 bps
Width : 640 pixels
Height : 268 pixels
Display aspect ratio : 2.35:1
Frame rate mode : Variable
Frame rate : 0.003 fps
Minimum frame rate : 0.001 fps
Maximum frame rate : 0.004 fps
Compression mode : Lossy
Bits/(Pixel*Frame) : 1.448
Stream size : 485 KiB (0%)
Language : English
Encoded date : UTC 2012-07-16 16:38:57
Tagged date : UTC 2012-07-16 16:38:57

Audio #1
ID : 2
Format : AAC
Format/Info : Advanced Audio Codec
Format profile : LC
Codec ID : 40
Duration : 1h 35mn
Bit rate mode : Variable
Bit rate : 164 Kbps
Maximum bit rate : 261 Kbps
Channel(s) : 2 channels
Channel positions : Front: L R
Sampling rate : 48.0 KHz
Compression mode : Lossy
Stream size : 112 MiB (3%)
Language : Russian
Encoded date : UTC 2012-07-16 16:35:02
Tagged date : UTC 2012-07-16 16:35:05

Audio #2
ID : 3
Format : AAC
Format/Info : Advanced Audio Codec
Format profile : LC
Codec ID : 40
Duration : 1h 35mn
Bit rate mode : Variable
Bit rate : 165 Kbps
Maximum bit rate : 268 Kbps
Channel(s) : 2 channels
Channel positions : Front: L R
Sampling rate : 48.0 KHz
Compression mode : Lossy
Stream size : 112 MiB (3%)
Language : English
Encoded date : UTC 2012-07-16 16:35:02
Tagged date : UTC 2012-07-16 16:35:07

Audio #3
ID : 4
Format : AC-3
Format/Info : Audio Coding 3
Mode extension : CM (complete main)
Codec ID : ac-3
Duration : 1h 35mn
Bit rate mode : Constant
Bit rate : 448 Kbps
Channel(s) : 6 channels
Channel positions : Front: L C R, Side: L R, LFE
Sampling rate : 48.0 KHz
Bit depth : 16 bits
Compression mode : Lossy
Stream size : 305 MiB (9%)
Language : Russian
Encoded date : UTC 2012-07-16 16:35:02
Tagged date : UTC 2012-07-16 16:35:18

Audio #4
ID : 5
Format : AC-3
Format/Info : Audio Coding 3
Mode extension : CM (complete main)
Codec ID : ac-3
Duration : 1h 35mn
Bit rate mode : Constant
Bit rate : 448 Kbps
Channel(s) : 6 channels
Channel positions : Front: L C R, Side: L R, LFE
Sampling rate : 48.0 KHz
Bit depth : 16 bits
Compression mode : Lossy
Stream size : 305 MiB (9%)
Language : English
Encoded date : UTC 2012-07-16 16:35:02
Tagged date : UTC 2012-07-16 16:35:30

Text #1
ID : 6
Format : Timed text
Muxing mode : sbtl
Codec ID : tx3g
Duration : 1h 30mn
Bit rate mode : Variable
Bit rate : 111 bps
Stream size : 73.6 KiB (0%)
Language : Russian
Encoded date : UTC 2012-07-16 16:35:02
Tagged date : UTC 2012-07-16 16:35:30

Text #2
ID : 7
Format : Timed text
Muxing mode : sbtl
Codec ID : tx3g
Duration : 1h 30mn
Bit rate mode : Variable
Bit rate : 79 bps
Stream size : 52.5 KiB (0%)
Language : English
Encoded date : UTC 2012-07-16 16:38:52
Tagged date : UTC 2012-07-16 16:38:52

Text #3
ID : 8
Format : Apple text
Codec ID : text
Duration : 1h 35mn
Bit rate mode : Variable
Bit rate : 1 bps
Stream size : 375 Bytes (0%)
Language : English
Encoded date : UTC 2012-07-16 16:38:52
Tagged date : UTC 2012-07-16 16:38:52

Menu
00:00:00.000 : Chapter 1
00:05:26.200 : Chapter 2
00:10:16.991 : Chapter 3
00:15:19.918 : Chapter 4
00:22:28.972 : Chapter 5
00:29:18.089 : Chapter 6
00:35:32.839 : Chapter 7
00:40:14.662 : Chapter 8
00:45:55.919 : Chapter 9
00:50:47.961 : Chapter 10
00:55:28.575 : Chapter 11
01:00:47.727 : Chapter 12
01:05:55.868 : Chapter 13
01:12:04.778 : Chapter 14
01:17:49.289 : Chapter 15
01:22:34.949 : Chapter 16
x264 [info]: frame I:2148 Avg QP:14.43 size: 80720 PSNR Mean Y:48.82 U:51.31 V:50.64 Avg:49.41 Global:48.99
x264 [info]: frame P:53257 Avg QP:15.88 size: 32951 PSNR Mean Y:47.49 U:50.64 V:49.78 Avg:48.20 Global:47.63
x264 [info]: frame B:81730 Avg QP:18.61 size: 10491 PSNR Mean Y:46.32 U:50.14 V:49.00 Avg:47.13 Global:46.56
x264 [info]: consecutive B-frames: 5.8% 36.6% 22.4% 35.2%
x264 [info]: mb I I16..4: 12.7% 55.3% 32.0%
x264 [info]: mb P I16..4: 3.5% 9.1% 4.1% P16..4: 40.2% 23.9% 10.1% 0.0% 0.0% skip: 9.1%
x264 [info]: mb B I16..4: 0.5% 1.4% 0.6% B16..8: 46.1% 12.9% 1.8% direct: 4.9% skip:31.7% L0:41.6% L1:51.3% BI: 7.1%
x264 [info]: 8x8 transform intra:54.9% inter:44.6%
x264 [info]: direct mvs spatial:98.7% temporal:1.3%
x264 [info]: coded y,uvDC,uvAC intra: 77.1% 80.4% 62.6% inter: 24.0% 24.6% 13.3%
x264 [info]: i16 v,h,dc,p: 41% 16% 8% 35%
x264 [info]: i8 v,h,dc,ddl,ddr,vr,hd,vl,hu: 10% 8% 7% 11% 15% 14% 14% 11% 11%
x264 [info]: i4 v,h,dc,ddl,ddr,vr,hd,vl,hu: 10% 10% 5% 13% 16% 14% 14% 10% 9%
x264 [info]: i8c dc,h,v,p: 48% 19% 20% 13%
x264 [info]: ref P L0: 71.2% 18.4% 10.5%
x264 [info]: ref B L0: 82.1% 17.9%
x264 [info]: SSIM Mean Y:0.9858686 (18.498db)
x264 [info]: PSNR Mean Y:46.813 U:50.355 V:49.329 Avg:47.579 Global:46.977 kb/s:3896.28
XID: RG-ATV:vendor_id:2012-496888
contentID: 540138002
Copyright: © 2011 EuropaCorp. All Rights Reserved.
Screenwriters: Джеймс Мэтер, Стивен Ст. Леджер
Producers: Люк Бессон
Director: Джеймс Мэтер, Стивен Ст. Леджер
Cast: Гай Пирс, Мэгги Грэйс, Винсент Риган, Джозеф Гилган, Ленни Джеймс, Петер Стормаре, Джеки Идо, Тим Плестер, Марк Танкерсли, Энн-Соленн Хатте
Rating: 63
Long Description: Орбитальная станция MS1 — крупнейшая космическая тюрьма, где в анабиозе содержатся тысячи опасных преступников. Ходят слухи, что над погруженными в искусственный сон узниками проводятся противозаконные эксперименты. С расследованием на станцию отправлена комиссия во главе с Эмили Уорнок, дочерью президента США...
Description: Орбитальная станция MS1 — крупнейшая космическая тюрьма, где в анабиозе содержатся тысячи опасных преступников. Ходят слухи, что над погруженными в искусственный сон узниками проводятся противозаконные эксперименты. С расследованием на станцию отправлена комиссия во главе с Эмили Уорнок, дочерью президента США...
Release Date: 2012-04-07T07:00:00Z
Genre: Action & Adventure
Artist: Stephen Saint Leger & James Mather
Name: Lockout (Unrated)


Трекер:  [ 05-Сен-2012 09:03 ]

  

Скачать .torrent

Размер .torrent файла 51 KB


Размер: 10.07 GB
Хэш (hash) релиза: 89b42de2bde0b979ba600b9ab9d8f2626979424c

Еще никто не оставлял запись к записи скачать торрент Нaпролом Lоckout . Будь первым!

!Обратная связь