Скачать через торрент Гнeв Титaнов Wrаth of thе Titаns бесплатно русская версия torrent активатор

Если у вас наблюдаются проблемы со скриншотами, переходом по ссылками, скачиванием торрентов - проблемы в блокировщике рекламы AdBlock. #хорошегоДня!


Статистика раздачи
Размер:  17.03 GB   |    Зарегистрирован:  5 лет 1 месяц   |    .torrent скачан:  55 раз   |   
Раздают:  1  
   
Загрузка...
 
Автор Сообщение

L


Гнев Титанов / Wrath of the Titans

Год выпуска: 2012
Страна: США
Жанр: фэнтези, боевик, приключения
Продолжительность: 01:39:32
Перевод: Дубляж
Субтитры: Русские, Английские
Навигация:по главам (с изображениями)

Режиссер: Джонатан Либесман

В ролях: Сэм Уортингтон, Лиам Нисон, Рэйф Файнс, Эдгар Рамирез, Тоби Кеббелл, Розамунд Пайк, Билл Найи, Дэнни Хьюстон, Джон Белл, Лили Джеймс

Описание: Прошло десять лет после героического поражения Персеем морского чудовища Кракена, теперь он живет спокойной жизнью деревенского рыбака и воспитывает своего 10-летнего сына.

Тем временем, бушует борьба за превосходство между Богами и Титанами. Опасно ослабленные нехваткой человеческой любви и преданности, Боги теряют контроль над заключенными в тюрьму Титанами и их свирепым лидером, Кроносом, отцом правящих братьев Зевса, Аида и Посейдона. Давным-давно триумвират сверг своего сильного отца, отправив его гнить в мрачную пропасть Тартар, темницу, находящуюся в глубоких пределах подземного мира.

Персей не может остаться в стороне, когда Аид вместе с сыном Зевса, Аресом, заключают сделку с Кроносом, чтобы вместе уничтожить Зевса. Сила Титанов становится ещё больше, в то время как Зевс теряет свою мощь и власть, а по Земле раскидывается ад подземного мира.

Вместе с Андромедой, полубогом Агенором, сыном Посейдона и низвергнутым богом Гефестом,- Персей отправляется в опасное и отважное путешествие в подземный мир, чтобы спасти Зевса, свергнуть Титанов и сохранить людской род.

Формат: MP4(контейнер m4v)Исходник:BDRemux 1080p
Видео:
Full HD: H.264, 1920 x 1080px , 23.976 fps ~15000 kbps avg
HD: H.264, 1280 x 720px , 23.976 fps ~5000 kbps avg
SD: H.264, 640 x 480px , 23.976 fps ~1700 kbps avg
Аудио: Русский (2.0 и 5.1), Английский (2.0 и 5.1)

5.937 / 10
* * * MediaInspector for Mac - Version 2.0, build 896
* * * ©2012 by Diego Massanti
* * * MediaInfo Lib by Jerome Martinez
* * * Raw File Report for Wrath of the Titans HD1080p.m4v

General
Complete name : /Volumes/Media/Convert/Wrath of the Titans HD1080p.m4v
Format : MPEG-4
Format profile : Base Media / Version 2
Codec ID : mp42
File size : 11.3 GiB
Duration : 2h 46mn
Overall bit rate : 9 694 Kbps
Movie name : Wrath of the Titans
Performer : Jonathan Liebesman
Genre : Action & Adventure
Recorded date : UTC 2012-03-28 07:00:00
Encoded date : UTC 2012-07-20 01:14:55
Tagged date : UTC 2012-07-22 14:38:20
Copyright : � 2012 COTT PRODUCTIONS LLC and FURIA DE TITANES II, A.I.E.
Cover : Yes
desc : ?????? ?????? ??? ????? ???????????? ????????? ??????? ???????? ???????? ???????, ?????? ?? ????? ????????? ?????? ???????????? ?????? ? ??????????? ?????? 10-??????? ????. ??? ????????, ?????? ?????? ?? ????????????? ????? ?????? ? ????????.
ldes : ?????? ?????? ??? ????? ???????????? ????????? ??????? ???????? ???????? ???????, ?????? ?? ????? ????????? ?????? ???????????? ?????? ? ??????????? ?????? 10-??????? ????. ??? ????????, ?????? ?????? ?? ????????????? ????? ?????? ? ????????.
hdvd : 2
stik : 9
rtng : 0
cnID : 521041078
xid : ATV-Apple:vendor_id:2012-518128
iTunEXTC : mpaa|PG-13|300|
iTunMOVI : <?xml version="1.0" encoding="UTF-8"?> / <!DOCTYPE plist PUBLIC "-//Apple//DTD PLIST 1.0//EN" "http://www.apple.com/DTDs/PropertyList-1.0.dtd"> / <plist version="1.0"> / <dict> / <key>cast</key> / <array> / <dict> / <key>name</key> / <string>??? ??????????</string> / </dict> / <dict> / <key>name</key> / <string>???? ?????</string> / </dict> / <dict> / <key>name</key> / <string>???? ?????</string> / </dict> / <dict> / <key>name</key> / <string>????? ???????</string> / </dict> / <dict> / <key>name</key> / <string>???? ???????</string> / </dict> / <dict> / <key>name</key> / <string>???????? ????</string> / </dict> / <dict> / <key>name</key> / <string>???? ????</string> / </dict> / <dict> / <key>name</key> / <string>????? ???????</string> / </dict> / <dict> / <key>name</key> / <string>???? ????</string> / </dict> / <dict> / <key>name</key> / <string>???? ??????</string> / </dict> / </array> / <key>directors</key> / <array> / <dict> / <key>name</key> / <string>???????? ????????</string> / </dict> / </array> / <key>producers</key> / <array> / <dict> / <key>name</key> / <string>????? ??????,????? ????</string> / </dict> / </array> / <key>screenwriters</key> / <array> / <dict> / <key>name</key> / <string>??? ????,????? ???????</string> / </dict> / </array> / </dict> / </plist>

Video #1
ID : 1
Format : AVC
Format/Info : Advanced Video Codec
Format profile : <a href="mailto:High@L4.0" class="postLink">High@L4.0</a>
Format settings, CABAC : Yes
Format settings, ReFrames : 4 frames
Codec ID : avc1
Codec ID/Info : Advanced Video Coding
Duration : 1h 39mn
Bit rate mode : Variable
Bit rate : 15.0 Mbps
Width : 1 920 pixels
Height : 1 080 pixels
Display aspect ratio : 16:9
Frame rate mode : Variable
Frame rate : 23.976 fps
Minimum frame rate : 23.810 fps
Maximum frame rate : 24.390 fps
Color space : YUV
Chroma subsampling : 4:2:0
Bit depth : 8 bits
Scan type : Progressive
Bits/(Pixel*Frame) : 0.302
Stream size : 10.4 GiB (92%)
Writing library : x264 core 120
Encoding settings : cabac=1 / ref=4 / deblock=1:1:0 / analyse=0x3:0x133 / me=umh / subme=10 / psy=1 / psy_rd=0.70:0.00 / mixed_ref=1 / me_range=32 / chroma_me=1 / trellis=2 / 8x8dct=1 / cqm=0 / deadzone=21,11 / fast_pskip=0 / chroma_qp_offset=-2 / threads=12 / sliced_threads=0 / nr=0 / decimate=0 / interlaced=0 / bluray_compat=0 / constrained_intra=0 / bframes=4 / b_pyramid=2 / b_adapt=2 / b_bias=0 / direct=3 / weightb=1 / open_gop=0 / weightp=2 / keyint=240 / keyint_min=24 / scenecut=40 / intra_refresh=0 / rc_lookahead=40 / rc=2pass / mbtree=0 / bitrate=15000 / ratetol=1.0 / qcomp=0.60 / qpmin=0 / qpmax=69 / qpstep=4 / cplxblur=20.0 / qblur=0.5 / vbv_maxrate=25000 / vbv_bufsize=25000 / nal_hrd=none / ip_ratio=1.40 / pb_ratio=1.30 / aq=1:1.00
Language : English
Encoded date : UTC 2012-07-20 01:14:55
Tagged date : UTC 2012-07-20 09:28:27
Color primaries : BT.709-5, BT.1361, IEC 61966-2-4, SMPTE RP177
Transfer characteristics : BT.709-5, BT.1361
Matrix coefficients : BT.709-5, BT.1361, IEC 61966-2-4 709, SMPTE RP177

Video #2
ID : 11
Format : JPEG
Codec ID : jpeg
Duration : 2h 46mn
Bit rate mode : Variable
Bit rate : 302 bps
Width : 640 pixels
Height : 360 pixels
Display aspect ratio : 16:9
Frame rate mode : Constant
Frame rate : 0.001 fps
Compression mode : Lossy
Bits/(Pixel*Frame) : 1.311
Stream size : 368 KiB (0%)
Language : English
Encoded date : UTC 2012-07-22 13:56:45
Tagged date : UTC 2012-07-22 13:56:46

Audio #1
ID : 2
Format : AAC
Format/Info : Advanced Audio Codec
Format profile : LC
Codec ID : 40
Duration : 1h 39mn
Bit rate mode : Variable
Bit rate : 165 Kbps
Maximum bit rate : 249 Kbps
Channel(s) : 2 channels
Channel positions : Front: L R
Sampling rate : 48.0 KHz
Compression mode : Lossy
Stream size : 117 MiB (1%)
Language : Russian
Encoded date : UTC 2012-07-22 13:47:28
Tagged date : UTC 2012-07-22 13:47:59

Audio #2
ID : 3
Format : AAC
Format/Info : Advanced Audio Codec
Format profile : LC
Codec ID : 40
Duration : 1h 39mn
Bit rate mode : Variable
Bit rate : 165 Kbps
Maximum bit rate : 239 Kbps
Channel(s) : 2 channels
Channel positions : Front: L R
Sampling rate : 48.0 KHz
Compression mode : Lossy
Stream size : 117 MiB (1%)
Language : English
Encoded date : UTC 2012-07-22 13:47:28
Tagged date : UTC 2012-07-22 13:48:28

Audio #3
ID : 4
Format : AC-3
Format/Info : Audio Coding 3
Mode extension : CM (complete main)
Codec ID : ac-3
Duration : 1h 39mn
Bit rate mode : Constant
Bit rate : 448 Kbps
Channel(s) : 6 channels
Channel positions : Front: L C R, Side: L R, LFE
Sampling rate : 48.0 KHz
Bit depth : 16 bits
Compression mode : Lossy
Stream size : 319 MiB (3%)
Language : Russian
Encoded date : UTC 2012-07-22 13:47:28
Tagged date : UTC 2012-07-22 13:48:37

Audio #4
ID : 5
Format : AC-3
Format/Info : Audio Coding 3
Mode extension : CM (complete main)
Codec ID : ac-3
Duration : 1h 39mn
Bit rate mode : Constant
Bit rate : 448 Kbps
Channel(s) : 6 channels
Channel positions : Front: L C R, Side: L R, LFE
Sampling rate : 48.0 KHz
Bit depth : 16 bits
Compression mode : Lossy
Stream size : 319 MiB (3%)
Language : English
Encoded date : UTC 2012-07-22 13:47:28
Tagged date : UTC 2012-07-22 13:48:46

Text #1
ID : 6
Format : Timed text
Muxing mode : sbtl
Codec ID : tx3g
Duration : 1h 30mn
Bit rate mode : Variable
Bit rate : 57 bps
Stream size : 37.7 KiB (0%)
Language : Russian
Encoded date : UTC 2012-07-22 13:47:28
Tagged date : UTC 2012-07-22 13:48:46

Text #2
ID : 7
Format : Timed text
Muxing mode : sbtl
Codec ID : tx3g
Duration : 1h 39mn
Bit rate mode : Variable
Bit rate : 40 bps
Stream size : 28.9 KiB (0%)
Language : English
Encoded date : UTC 2012-07-22 13:47:28
Tagged date : UTC 2012-07-22 13:48:46

Text #3
ID : 10
Format : Apple text
Codec ID : text
Duration : 1h 39mn
Bit rate mode : Constant
Bit rate : 0
Stream size : 240 Bytes (0%)
Language : English
Encoded date : UTC 2012-07-22 13:56:22
Tagged date : UTC 2012-07-22 13:56:22

Menu
00:00:00.000 : Chapter 01
00:09:24.855 : Chapter 02
00:20:07.122 : Chapter 03
00:30:53.059 : Chapter 04
00:40:02.316 : Chapter 05
00:48:46.882 : Chapter 06
01:00:21.742 : Chapter 07
01:10:16.420 : Chapter 08
01:19:18.712 : Chapter 09
01:30:33.803 : Chapter 10
x264 [info]: frame I:1090 Avg QP:18.03 size:258045 PSNR Mean Y:47.52 U:50.29 V:51.22 Avg:48.32 Global:47.38
x264 [info]: frame P:42177 Avg QP:20.44 size:111829 PSNR Mean Y:44.82 U:49.29 V:50.39 Avg:45.90 Global:44.82
x264 [info]: frame B:99918 Avg QP:21.34 size: 62005 PSNR Mean Y:43.93 U:48.76 V:49.91 Avg:45.07 Global:44.38
x264 [info]: consecutive B-frames: 3.5% 8.1% 7.7% 78.6% 2.1%
x264 [info]: mb I I16..4: 5.4% 80.5% 14.1%
x264 [info]: mb P I16..4: 1.8% 35.6% 1.2% P16..4: 33.3% 15.9% 5.5% 0.4% 0.1% skip: 6.4%
x264 [info]: mb B I16..4: 0.3% 5.1% 0.2% B16..8: 46.3% 15.9% 3.7% direct:10.5% skip:18.1% L0:50.9% L1:40.0% BI: 9.1%
x264 [info]: 8x8 transform intra:91.5% inter:79.6%
x264 [info]: direct mvs spatial:98.2% temporal:1.8%
x264 [info]: coded y,uvDC,uvAC intra: 90.7% 83.3% 48.5% inter: 52.5% 38.0% 8.4%
x264 [info]: i16 v,h,dc,p: 33% 12% 10% 45%
x264 [info]: i8 v,h,dc,ddl,ddr,vr,hd,vl,hu: 8% 6% 15% 10% 13% 11% 12% 11% 13%
x264 [info]: i4 v,h,dc,ddl,ddr,vr,hd,vl,hu: 14% 9% 6% 8% 14% 13% 14% 10% 14%
x264 [info]: i8c dc,h,v,p: 44% 22% 18% 15%
x264 [info]: Weighted P-Frames: Y:4.4% UV:2.2%
x264 [info]: ref P L0: 65.9% 10.2% 16.3% 6.7% 0.9% 0.0%
x264 [info]: ref B L0: 93.3% 5.7% 1.0%
x264 [info]: ref B L1: 96.9% 3.1%
x264 [info]: SSIM Mean Y:0.9729300 (15.675db)
x264 [info]: PSNR Mean Y:44.220 U:48.926 V:50.059 Avg:45.339 Global:44.522 kb/s:14994.29
* * * MediaInspector for Mac - Version 2.0, build 896
* * * ©2012 by Diego Massanti
* * * MediaInfo Lib by Jerome Martinez
* * * Raw File Report for Wrath of the Titans HD720p.m4v

General
Complete name : /Volumes/Media/Convert/Wrath of the Titans HD720p.m4v
Format : MPEG-4
Format profile : Base Media / Version 2
Codec ID : mp42
File size : 4.33 GiB
Duration : 2h 46mn
Overall bit rate : 3 720 Kbps
Movie name : Wrath of the Titans
Performer : Jonathan Liebesman
Genre : Action & Adventure
Recorded date : UTC 2012-03-28 07:00:00
Encoded date : UTC 2012-07-19 06:54:27
Tagged date : UTC 2012-07-22 14:34:56
Copyright : � 2012 COTT PRODUCTIONS LLC and FURIA DE TITANES II, A.I.E.
Cover : Yes
desc : ?????? ?????? ??? ????? ???????????? ????????? ??????? ???????? ???????? ???????, ?????? ?? ????? ????????? ?????? ???????????? ?????? ? ??????????? ?????? 10-??????? ????. ??? ????????, ?????? ?????? ?? ????????????? ????? ?????? ? ????????.
ldes : ?????? ?????? ??? ????? ???????????? ????????? ??????? ???????? ???????? ???????, ?????? ?? ????? ????????? ?????? ???????????? ?????? ? ??????????? ?????? 10-??????? ????. ??? ????????, ?????? ?????? ?? ????????????? ????? ?????? ? ????????.
hdvd : 1
stik : 9
rtng : 0
cnID : 521041078
xid : ATV-Apple:vendor_id:2012-518128
iTunEXTC : mpaa|PG-13|300|
iTunMOVI : <?xml version="1.0" encoding="UTF-8"?> / <!DOCTYPE plist PUBLIC "-//Apple//DTD PLIST 1.0//EN" "http://www.apple.com/DTDs/PropertyList-1.0.dtd"> / <plist version="1.0"> / <dict> / <key>cast</key> / <array> / <dict> / <key>name</key> / <string>??? ??????????</string> / </dict> / <dict> / <key>name</key> / <string>???? ?????</string> / </dict> / <dict> / <key>name</key> / <string>???? ?????</string> / </dict> / <dict> / <key>name</key> / <string>????? ???????</string> / </dict> / <dict> / <key>name</key> / <string>???? ???????</string> / </dict> / <dict> / <key>name</key> / <string>???????? ????</string> / </dict> / <dict> / <key>name</key> / <string>???? ????</string> / </dict> / <dict> / <key>name</key> / <string>????? ???????</string> / </dict> / <dict> / <key>name</key> / <string>???? ????</string> / </dict> / <dict> / <key>name</key> / <string>???? ??????</string> / </dict> / </array> / <key>directors</key> / <array> / <dict> / <key>name</key> / <string>???????? ????????</string> / </dict> / </array> / <key>producers</key> / <array> / <dict> / <key>name</key> / <string>????? ??????,????? ????</string> / </dict> / </array> / <key>screenwriters</key> / <array> / <dict> / <key>name</key> / <string>??? ????,????? ???????</string> / </dict> / </array> / </dict> / </plist>

Video #1
ID : 1
Format : AVC
Format/Info : Advanced Video Codec
Format profile : <a href="mailto:High@L3.1" class="postLink">High@L3.1</a>
Format settings, CABAC : No
Format settings, ReFrames : 3 frames
Codec ID : avc1
Codec ID/Info : Advanced Video Coding
Duration : 1h 39mn
Bit rate mode : Variable
Bit rate : 5 000 Kbps
Width : 1 280 pixels
Height : 720 pixels
Display aspect ratio : 16:9
Frame rate mode : Variable
Frame rate : 23.976 fps
Minimum frame rate : 23.810 fps
Maximum frame rate : 24.390 fps
Color space : YUV
Chroma subsampling : 4:2:0
Bit depth : 8 bits
Scan type : Progressive
Bits/(Pixel*Frame) : 0.226
Stream size : 3.47 GiB (80%)
Writing library : x264 core 120
Encoding settings : cabac=0 / ref=3 / deblock=1:0:0 / analyse=0x3:0x113 / me=umh / subme=9 / psy=1 / psy_rd=1.00:0.00 / mixed_ref=1 / me_range=32 / chroma_me=1 / trellis=0 / 8x8dct=1 / cqm=0 / deadzone=21,11 / fast_pskip=1 / chroma_qp_offset=-2 / threads=12 / sliced_threads=0 / nr=0 / decimate=0 / interlaced=0 / bluray_compat=0 / constrained_intra=0 / bframes=3 / b_pyramid=0 / b_adapt=2 / b_bias=0 / direct=3 / weightb=0 / open_gop=0 / weightp=0 / keyint=240 / keyint_min=24 / scenecut=40 / intra_refresh=0 / rc_lookahead=40 / rc=2pass / mbtree=1 / bitrate=5000 / ratetol=1.0 / qcomp=0.60 / qpmin=3 / qpmax=69 / qpstep=4 / cplxblur=20.0 / qblur=0.5 / vbv_maxrate=9500 / vbv_bufsize=9500 / nal_hrd=none / ip_ratio=1.40 / aq=1:1.00
Language : English
Encoded date : UTC 2012-07-19 06:54:27
Tagged date : UTC 2012-07-19 08:39:20
Color primaries : BT.709-5, BT.1361, IEC 61966-2-4, SMPTE RP177
Transfer characteristics : BT.709-5, BT.1361
Matrix coefficients : BT.709-5, BT.1361, IEC 61966-2-4 709, SMPTE RP177

Video #2
ID : 9
Format : JPEG
Codec ID : jpeg
Duration : 2h 46mn
Bit rate mode : Variable
Bit rate : 293 bps
Width : 640 pixels
Height : 360 pixels
Display aspect ratio : 16:9
Frame rate mode : Constant
Frame rate : 0.001 fps
Compression mode : Lossy
Bits/(Pixel*Frame) : 1.272
Stream size : 357 KiB (0%)
Language : English
Encoded date : UTC 2012-07-22 13:59:00
Tagged date : UTC 2012-07-22 13:59:01

Audio #1
ID : 2
Format : AAC
Format/Info : Advanced Audio Codec
Format profile : LC
Codec ID : 40
Duration : 1h 39mn
Bit rate mode : Variable
Bit rate : 165 Kbps
Maximum bit rate : 249 Kbps
Channel(s) : 2 channels
Channel positions : Front: L R
Sampling rate : 48.0 KHz
Compression mode : Lossy
Stream size : 117 MiB (3%)
Language : Russian
Encoded date : UTC 2012-07-22 13:58:42
Tagged date : UTC 2012-07-22 13:58:44

Audio #2
ID : 3
Format : AAC
Format/Info : Advanced Audio Codec
Format profile : LC
Codec ID : 40
Duration : 1h 39mn
Bit rate mode : Variable
Bit rate : 165 Kbps
Maximum bit rate : 239 Kbps
Channel(s) : 2 channels
Channel positions : Front: L R
Sampling rate : 48.0 KHz
Compression mode : Lossy
Stream size : 117 MiB (3%)
Language : English
Encoded date : UTC 2012-07-22 13:58:42
Tagged date : UTC 2012-07-22 13:58:47

Audio #3
ID : 4
Format : AC-3
Format/Info : Audio Coding 3
Mode extension : CM (complete main)
Codec ID : ac-3
Duration : 1h 39mn
Bit rate mode : Constant
Bit rate : 448 Kbps
Channel(s) : 6 channels
Channel positions : Front: L C R, Side: L R, LFE
Sampling rate : 48.0 KHz
Bit depth : 16 bits
Compression mode : Lossy
Stream size : 319 MiB (7%)
Language : Russian
Encoded date : UTC 2012-07-22 13:58:42
Tagged date : UTC 2012-07-22 13:58:51

Audio #4
ID : 5
Format : AC-3
Format/Info : Audio Coding 3
Mode extension : CM (complete main)
Codec ID : ac-3
Duration : 1h 39mn
Bit rate mode : Constant
Bit rate : 448 Kbps
Channel(s) : 6 channels
Channel positions : Front: L C R, Side: L R, LFE
Sampling rate : 48.0 KHz
Bit depth : 16 bits
Compression mode : Lossy
Stream size : 319 MiB (7%)
Language : English
Encoded date : UTC 2012-07-22 13:58:42
Tagged date : UTC 2012-07-22 13:58:55

Text #1
ID : 6
Format : Timed text
Muxing mode : sbtl
Codec ID : tx3g
Duration : 1h 30mn
Bit rate mode : Variable
Bit rate : 57 bps
Stream size : 37.7 KiB (0%)
Language : Russian
Encoded date : UTC 2012-07-22 13:58:42
Tagged date : UTC 2012-07-22 13:58:55

Text #2
ID : 7
Format : Timed text
Muxing mode : sbtl
Codec ID : tx3g
Duration : 1h 39mn
Bit rate mode : Variable
Bit rate : 40 bps
Stream size : 28.9 KiB (0%)
Language : English
Encoded date : UTC 2012-07-22 13:58:42
Tagged date : UTC 2012-07-22 13:58:55

Text #3
ID : 8
Format : Apple text
Codec ID : text
Duration : 1h 39mn
Bit rate mode : Constant
Bit rate : 0
Stream size : 240 Bytes (0%)
Language : English
Encoded date : UTC 2012-07-22 13:58:55
Tagged date : UTC 2012-07-22 13:58:55

Menu
00:00:00.000 : Chapter 01
00:09:24.855 : Chapter 02
00:20:07.122 : Chapter 03
00:30:53.059 : Chapter 04
00:40:02.316 : Chapter 05
00:48:46.882 : Chapter 06
01:00:21.742 : Chapter 07
01:10:16.420 : Chapter 08
01:19:18.712 : Chapter 09
01:30:33.803 : Chapter 10
x264 [info]: frame I:1250 Avg QP:19.15 size:115558 PSNR Mean Y:44.39 U:47.58 V:48.71 Avg:45.29 Global:44.54
x264 [info]: frame P:54028 Avg QP:20.89 size: 43809 PSNR Mean Y:43.28 U:47.96 V:48.79 Avg:44.38 Global:43.53
x264 [info]: frame B:87907 Avg QP:23.09 size: 13817 PSNR Mean Y:41.83 U:47.66 V:48.56 Avg:43.08 Global:42.42
x264 [info]: consecutive B-frames: 3.6% 37.0% 20.4% 39.1%
x264 [info]: mb I I16..4: 8.7% 62.9% 28.4%
x264 [info]: mb P I16..4: 2.1% 13.3% 4.2% P16..4: 41.1% 20.9% 8.7% 0.0% 0.0% skip: 9.7%
x264 [info]: mb B I16..4: 0.3% 2.7% 0.7% B16..8: 44.2% 10.4% 1.5% direct: 5.0% skip:35.2% L0:40.2% L1:54.4% BI: 5.4%
x264 [info]: 8x8 transform intra:68.3% inter:54.5%
x264 [info]: direct mvs spatial:98.4% temporal:1.6%
x264 [info]: coded y,uvDC,uvAC intra: 86.1% 72.1% 35.9% inter: 27.9% 19.4% 5.9%
x264 [info]: i16 v,h,dc,p: 30% 14% 7% 49%
x264 [info]: i8 v,h,dc,ddl,ddr,vr,hd,vl,hu: 5% 5% 2% 14% 20% 16% 17% 11% 11%
x264 [info]: i4 v,h,dc,ddl,ddr,vr,hd,vl,hu: 6% 6% 2% 13% 19% 17% 16% 11% 10%
x264 [info]: i8c dc,h,v,p: 50% 18% 20% 13%
x264 [info]: ref P L0: 79.0% 13.3% 7.6%
x264 [info]: ref B L0: 86.5% 13.5%
x264 [info]: SSIM Mean Y:0.9624333 (14.252db)
x264 [info]: PSNR Mean Y:42.402 U:47.772 V:48.652 Avg:43.590 Global:42.823 kb/s:4991.26
XID: ATV-Apple:vendor_id:2012-518128
contentID: 521041078
Copyright: © 2012 COTT PRODUCTIONS LLC and FURIA DE TITANES II, A.I.E.
Screenwriters: Дэн Мазо,Дэвид Джонсон
Producers: Бэзил Иваник,Полли Коэн
Director: Джонатан Либесман
Cast: Сэм Уортингтон, Лиам Нисон, Рэйф Файнс, Эдгар Рамирез, Тоби Кеббелл, Розамунд Пайк, Билл Найи, Дэнни Хьюстон, Джон Белл, Лили Джеймс
Rating: 4
Long Description: Прошло десять лет после героического поражения Персеем морского чудовища Кракена, теперь он живет спокойной жизнью деревенского рыбака и воспитывает своего 10-летнего сына. Тем временем, бушует борьба за превосходство между Богами и Титанами.
Description: Прошло десять лет после героического поражения Персеем морского чудовища Кракена, теперь он живет спокойной жизнью деревенского рыбака и воспитывает своего 10-летнего сына. Тем временем, бушует борьба за превосходство между Богами и Титанами.
Release Date: 2012-03-28T07:00:00Z
Genre: Action & Adventure
Artist: Jonathan Liebesman
Name: Wrath of the Titans


Трекер:  [ 05-Сен-2012 08:59 ]

  

Скачать .torrent

Размер .torrent файла 86 KB


Размер: 17.03 GB
Хэш (hash) релиза: 255a7db346c00e6acba16589e343b97ec5f3d9f2

Торренты, похожие на Гнeв Титaнов Wrаth of thе Titаns скачать торрент

Форум Название Автор Размер S L Добавлен
Apple Mobile Device Software ·· Гнeв Титaнов / Wrаth of thе Titаns (Джoнатан Либeсман) [2012, фэнтези, боевик, приключения, BDRip] DUB + VO (zamez) + UKR + Original Eng + Subs (rus, eng) Galfimbul 25989976532.42 GB 0 0 1344614460

19:01

10-Авг-12

Еще никто не оставлял запись к записи скачать торрент Гнeв Титaнов Wrаth of thе Titаns . Будь первым!

!Обратная связь