Скачать через торрент Неудержимые The Expendables бесплатно русская версия torrent активатор

Если у вас наблюдаются проблемы со скриншотами, переходом по ссылками, скачиванием торрентов - проблемы в блокировщике рекламы AdBlock. #хорошегоДня!


Статистика раздачи
Размер:  1.15 GB   |    Зарегистрирован:  5 лет 1 месяц   |    .torrent скачан:  123 раза   |   
Раздают:  1  
   
Загрузка...
 
Автор Сообщение

L


Неудержимые / The Expendables

Год выхода: 2010
Страна: США
Жанр: боевик, триллер, приключения
Продолжительность: 01:43:28
Перевод: Профессиональный (дублированный)
Субтитры: русские
Режиссер: Сильвестр Сталлоне / Sylvester Stallone
В ролях: Сильвестр Сталлоне, Джейсон Стэтхэм, Джет Ли, Дольф Лундгрен, Эрик Робертс, Рэнди Кутюр, Стив Остин, Дэвид Зайас, Жизель Итье, Харизма Карпентер
О фильме: Отряд профессиональных наёмников и отчаянных парней во главе с Барни Россом получает непростое задание — любой ценой найти и уничтожить кровавого тирана-диктатора, нагнетающего страх на мирное население и сеющего хаос в южноамериканской стране. Отправляясь на выполнение нелёгкой миссии, закалённые огнём и водой, прошедшие не одну войну, люди Росса попадают в самое пекло. Отныне им придётся выживать: сплотиться и достигнуть цели, либо отчаяться и погибнуть. И всё же эти храбрые, поистине невозмутимые ребята готовы реализовать даже не реализуемое. Но не всё так просто, как кажется на первый взгляд…
Качество: BDRip
Формат: *.m4v
Видео кодек: H.264
аудио кодек: ААС
Разрешение: 720x320
Другие параметры видео: AVC at 1200 Кбит/сек, 720 x 320 (2.250) at 23.976 fps
Аудио: AAC at 128 Кбит/сек, 2 канала, 48,0 КГц
Вшитая обложка: есть
Доп. теги (режиссёр, актёры и т.д.): прописаны
Телешоу/видеоклип : не требуется
Главы: есть
Серия/сезон: не требуется
Общее
Полное имя : E:\The Expendables.m4v
Формат : MPEG-4
Идентификатор кодека : M4V
Размер файла : 1,15 Гбайт
Продолжительность : 1 ч. 43 м.
Режим общего битрейта : Переменный
Общий поток : 1598 Кбит/сек
Название фильма : The Expendables
Исполнитель : Сильвестр Сталлоне
Жанр : Action
Дата записи : 2010-08-03
Дата кодирования : UTC 2012-06-27 15:34:52
Дата пометки : UTC 2012-06-28 15:50:38
Программа кодирования : Yamb 2.1.0.0 []http://yamb.unite-video.com]
Обложка : Yes
iTunEXTC : mpaa|R|400|
iTunMOVI : <?xml version="1.0" encoding="UTF-8"?> / <!DOCTYPE plist PUBLIC "-//Apple//DTD PLIST 1.0//EN" "http://www.apple.com/DTDs/PropertyList-1.0.dtd"> / <plist version="1.0"> / <dict> / <key>cast</key> / <array> / <dict> / <key>name</key> / <string>Сильвестр Сталлоне</string> / </dict> / <dict> / <key>name</key> / <string>Джейсон Стэйтем</string> / </dict> / <dict> / <key>name</key> / <string>Джет Ли</string> / </dict> / </array> / <key>directors</key> / <array> / <dict> / <key>name</key> / <string>Сильвестр Сталлоне</string> / </dict> / </array> / <key>producers</key> / <array> / <dict> / <key>name</key> / <string>Авэ Лернер</string> / </dict> / <dict> / <key>name</key> / <string>Кевин Кинг Темплтон</string> / </dict> / <dict> / <key>name</key> / <string>Джон Томпсон</string> / </dict> / </array> / <key>screenwriters</key> / <array> / <dict> / <key>name</key> / <string>Дэйв Каллахэм</string> / </dict> / <dict> / <key>name</key> / <string>Сильвестр Сталлоне</string> / </dict> / </array> / </dict> / </plist>
desc : Отряд профессиональных наёмников и отчаянных парней во главе с Барни Россом получает непростое задание — любой ценой найти и уничтожить кровавого тирана-диктатора, нагнетающего страх на мирное население и сеющего хаос в южноамериканской стране.
ldes : Отряд профессиональных наёмников и отчаянных парней во главе с Барни Россом получает непростое задание — любой ценой найти и уничтожить кровавого тирана-диктатора, нагнетающего страх на мирное население и сеющего хаос в южноамериканской стране. / / Отправляясь на выполнение нелёгкой миссии, закалённые огнём и водой, прошедшие не одну войну, люди Росса попадают в самое пекло. Отныне им придётся выживать: сплотиться и достигнуть цели, либо отчаяться и погибнуть. И всё же эти храбрые, поистине невозмутимые ребята готовы реализовать даже не реализуемое. Но не всё так просто, как кажется на первый взгляд…
hdvd : 0
stik : 9
akID : -1
sfID : 0

Видео
Идентификатор : 1
Формат : AVC
Формат/Информация : Advanced Video Codec
Профиль формата : <a href="mailto:Baseline@L3.0" class="postLink">Baseline@L3.0</a>
Параметр CABAC формата : Нет
Параметр ReFrames формата : 3 кадра
Идентификатор кодека : avc1
Идентификатор кодека/Информация : Advanced Video Coding
Продолжительность : 1 ч. 43 м.
Битрейт : 1200 Кбит/сек
Максимальный битрейт : 5840 Кбит/сек
Ширина : 720 пикселей
Высота : 320 пикселей
Соотношение сторон : 2,25:1
Режим частоты кадров : Переменный
Частота кадров : 23,976 кадра/сек
Минимальная частота кадров : 23,810 кадра/сек
Максимальная частота кадров : 24,390 кадра/сек
Цветовое пространство : YUV
Субдискретизация насыщенности : 4:2:0
Битовая глубина : 8 бит
Тип развёртки : Прогрессивная
Бит/(Пиксели*Кадры) : 0.217
Размер потока : 887 Мбайт (75%)
Библиотека кодирования : x264 core 120
Настройки программы : cabac=0 / ref=3 / deblock=1:0:0 / analyse=0x1:0x111 / me=umh / subme=9 / psy=1 / psy_rd=1.00:0.00 / mixed_ref=1 / me_range=16 / chroma_me=1 / trellis=0 / 8x8dct=0 / cqm=0 / deadzone=21,11 / fast_pskip=1 / chroma_qp_offset=-2 / threads=6 / sliced_threads=0 / nr=0 / decimate=1 / interlaced=0 / bluray_compat=0 / constrained_intra=0 / bframes=0 / weightp=0 / keyint=240 / keyint_min=24 / scenecut=40 / intra_refresh=0 / rc_lookahead=40 / rc=2pass / mbtree=1 / bitrate=1200 / ratetol=1.0 / qcomp=0.60 / qpmin=3 / qpmax=69 / qpstep=4 / cplxblur=20.0 / qblur=0.5 / ip_ratio=1.40 / aq=1:1.00
Дата кодирования : UTC 2012-06-28 14:27:52
Дата пометки : UTC 2012-06-27 15:38:13
Основные цвета : BT.709-5, BT.1361, IEC 61966-2-4, SMPTE RP177
Характеристики трансфера : BT.709-5, BT.1361
Коэффициенты матрицы : BT.709-5, BT.1361, IEC 61966-2-4 709, SMPTE RP177

Аудио #1
Идентификатор : 2
Формат : AAC
Формат/Информация : Advanced Audio Codec
Профиль формата : LC
Идентификатор кодека : 40
Продолжительность : 1 ч. 43 м.
Вид битрейта : Переменный
Битрейт : 128 Кбит/сек
Максимальный битрейт : 267 Кбит/сек
Каналы : 2 канала
Расположение каналов : Front: L R
Частота : 48,0 КГц
Метод сжатия : С потерями
Размер потока : 94,7 Мбайт (8%)
Язык : Russian
Дата кодирования : UTC 2012-06-27 15:38:01
Дата пометки : UTC 2012-06-27 15:38:13

Аудио #2
Идентификатор : 3
Формат : AAC
Формат/Информация : Advanced Audio Codec
Профиль формата : LC
Идентификатор кодека : 40
Продолжительность : 1 ч. 43 м.
Вид битрейта : Переменный
Битрейт : 128 Кбит/сек
Максимальный битрейт : 221 Кбит/сек
Каналы : 2 канала
Расположение каналов : Front: L R
Частота : 48,0 КГц
Метод сжатия : С потерями
Размер потока : 94,7 Мбайт (8%)
Язык : Russian
Дата кодирования : UTC 2012-06-27 15:38:05
Дата пометки : UTC 2012-06-27 15:38:13

Аудио #3
Идентификатор : 4
Формат : AAC
Формат/Информация : Advanced Audio Codec
Профиль формата : LC
Идентификатор кодека : 40
Продолжительность : 1 ч. 43 м.
Вид битрейта : Переменный
Битрейт : 128 Кбит/сек
Максимальный битрейт : 252 Кбит/сек
Каналы : 2 канала
Расположение каналов : Front: L R
Частота : 48,0 КГц
Метод сжатия : С потерями
Размер потока : 94,7 Мбайт (8%)
Язык : English
Дата кодирования : UTC 2012-06-27 15:38:09
Дата пометки : UTC 2012-06-27 15:38:13

Текст #1
Идентификатор : 5
Формат : Timed text
Режим смешивания : sbtl
Идентификатор кодека : tx3g
Продолжительность : 1 ч. 34 м.
Вид битрейта : Переменный
Битрейт : 70 бит/сек
Размер потока : 48,4 Кбайт (0%)
Язык : Russian
Дата кодирования : UTC 2012-06-27 15:38:13
Дата пометки : UTC 2012-06-27 15:38:13

Текст #2
Идентификатор : 6
Формат : Timed text
Режим смешивания : sbtl
Идентификатор кодека : tx3g
Продолжительность : 1 ч. 34 м.
Вид битрейта : Переменный
Битрейт : 44 бит/сек
Размер потока : 30,4 Кбайт (0%)
Язык : English
Дата кодирования : UTC 2012-06-27 15:38:13
Дата пометки : UTC 2012-06-27 15:38:13

[/code]




Трекер:  [ 05-Сен-2012 07:23 ]

  

Скачать .torrent

Размер .torrent файла 12 KB


Размер: 1.15 GB
Хэш (hash) релиза: 9e06c4d43107697c56e3b92f45a87a1b0012fab1

Торренты, похожие на Неудержимые The Expendables скачать торрент

Форум Название Автор Размер S L Добавлен
Видео (Фильмы/Клипы) ·· [VIDEO] Неудержимые / The Expendables (Сильвестр Сталлоне / Sylvester Stallone) [2010, боевик, триллер, приключения, HDRip] [Theatrical] [MP4, 640x] Dub РЕН-ТВ Galfimbul 936797574893 MB 0 0 1474036530

17:35

16-Сен-16

Apple Mobile Device Software ·· Неудержимые / The Expendables (Сильвестр Сталлоне / Sylvester Stallone) [2010, Боевик, триллер, приключения, BDRip, 320x144] L 489830145467 MB 0 0 1346817420

06:57

5-Сен-12

Видео (iPhone/iPod Touch/iPad) ·· Неудержимые. Трилогия / The Expendables. Trilogy (Сильвестр Сталлоне, Саймон Уэст, Патрик Хьюз) [2010,2012,2014, США, боевик, приключения, BDRip HD (1080p, 720p), SD (480p)] DUB, AVO, Original + SUB (rus, eng) + iTunes Extras for The Expendables Galfimbul 7048502709565.64 GB 0 0 1460582255

00:17

14-Апр-16

Видео (Фильмы/Клипы) ·· [VIDEO] Неудержимые 3 / The Expendables 3 (Патрик Хьюз / Patrick Hughes) [2014, боевик, триллер, приключения, HDRip] [MP4, 960x] [Extended Cut] Dub, VO Володарский, VO Горчаков Galfimbul 16429617541.53 GB 0 0 1429804499

18:54

23-Апр-15

Видео (Фильмы/Клипы) ·· [VIDEO] Неудержимые 3 / The Expendables 3 (Патрик Хьюз / Patrick Hughes) [2014, боевик, триллер, приключения, HDRip] [MP4, 960x] [Extended Cut] Dub Galfimbul 13762582511.28 GB 0 0 1418013200

07:33

8-Дек-14

Видео (iPhone/iPod Touch/iPad) ·· Неудержимые 3 [Неклассифицируемая версия] / The Expendables 3 [Unrated Edition] (Патрик Хьюз) [2014, США, Франция, боевик, триллер, приключения, BDRip HD (1080p, 720p), SD] DUB, AVO, Original + SUB (eng) Galfimbul 2194720842820.44 GB 0 0 1417546733

21:58

2-Дек-14

Еще никто не оставлял запись к записи скачать торрент Неудержимые The Expendables . Будь первым!

!Обратная связь