Скачать через торрент Женщина в черном The Woman in Black бесплатно русская версия torrent активатор

Если у вас наблюдаются проблемы со скриншотами, переходом по ссылками, скачиванием торрентов - проблемы в блокировщике рекламы AdBlock. #хорошегоДня!


Статистика раздачи
Размер:  997 MB   |    Зарегистрирован:  5 лет 1 месяц   |    .torrent скачан:  53 раза   |   
Раздают:  1  
   
Загрузка...
 
Автор Сообщение

L


Женщина в черном / The Woman in Black

Год выпуска: 2012
Страна: Швеция, Канада, Великобритания
Жанр: ужасы, триллер, драма
Продолжительность: 01:35:19
Перевод : Профессиональный (полное дублирование)
Русские субтитры: есть
Режиссёр: Джеймс Уоткинс / James Watkins
В ролях: Дэниэл Рэдклифф, Кьяран Хайндс, Джанет МакТир, Дэвид Бурк, Шон Дули, Эмма Шори, Хэрмон Молли, Софи Стаки, Миша Хэндли, Джессика Рэйне
Описание: На дворе — конец девятнадцатого века, но, хотя люди пользуются автомобилями, железными дорогами и телеграфом, человек по-прежнему бессилен перед проявлениями сверхъестественного. Молодой лондонский юрист Артур Киппс вынужден оставить своего 4-летнего сына и отправиться в командировку в уединенную северную деревушку, чтобы составить реестр документов, оставшихся от скончавшегося хозяина поместья Ил Марш. Добравшись до места и пообщавшись с негостеприимными местными жителями, он начинает понимать, что над деревушкой нависла тень мрачной тайны. Когда же рядом со старым кладбищем ему на глаза попадается загадочная женщина, одетая в черное, это малозначительное происшествие знаменует начало череды леденящих кровь смертей в семьях обитателей деревни.
Качество: BDRip
Формат: *.m4v
Видео кодек: H.264
аудио кодек: ААС
Разрешение: 720x320
Другие параметры видео: AVC at 1200 Кбит/сек, 720 x 320 (2.250) at 23.976 fps
Аудио: AAC at 128 Кбит/сек, 2 канала, 48,0 КГц
Вшитая обложка: есть
Доп. теги (режиссёр, актёры и т.д.): прописаны
Телешоу/видеоклип : не требуется
Главы: есть
Серия/сезон: не требуется
Общее
Полное имя : E:\The Woman in Black.m4v
Формат : MPEG-4
Профиль формата : Base Media / Version 2
Идентификатор кодека : mp42
Размер файла : 997 Мбайт
Продолжительность : 1 ч. 35 м.
Режим общего битрейта : Переменный
Общий поток : 1462 Кбит/сек
Название фильма : The Woman in Black
Исполнитель : Джеймс Уоткинс
Жанр : Horror
Дата записи : 2012-02-03
Дата кодирования : UTC 2012-06-28 10:39:50
Дата пометки : UTC 2012-06-28 13:41:43
Программа кодирования : HandBrake 0.9.6 2012022800
Обложка : Yes
iTunEXTC : mpaa|PG-13|300|
iTunMOVI : <?xml version="1.0" encoding="UTF-8"?> / <!DOCTYPE plist PUBLIC "-//Apple//DTD PLIST 1.0//EN" "http://www.apple.com/DTDs/PropertyList-1.0.dtd"> / <plist version="1.0"> / <dict> / <key>cast</key> / <array> / <dict> / <key>name</key> / <string>Дэниэл Рэдклифф</string> / </dict> / <dict> / <key>name</key> / <string>Кирен Хайдз</string> / </dict> / <dict> / <key>name</key> / <string>Джанет МакТир</string> / </dict> / </array> / <key>directors</key> / <array> / <dict> / <key>name</key> / <string>Джеймс Уоткинс</string> / </dict> / </array> / <key>producers</key> / <array> / <dict> / <key>name</key> / <string>Саймон Оукс</string> / </dict> / <dict> / <key>name</key> / <string>Брайан Оливер</string> / </dict> / <dict> / <key>name</key> / <string>Ричард Джексон</string> / </dict> / </array> / <key>screenwriters</key> / <array> / <dict> / <key>name</key> / <string>Джейн Голдман</string> / </dict> / <dict> / <key>name</key> / <string>Сьюзен Хилл</string> / </dict> / </array> / </dict> / </plist>
desc : На дворе — конец девятнадцатого века, но, хотя люди пользуются автомобилями, железными дорогами и телеграфом, человек по-прежнему бессилен перед проявлениями сверхъестественного.
ldes : На дворе — конец девятнадцатого века, но, хотя люди пользуются автомобилями, железными дорогами и телеграфом, человек по-прежнему бессилен перед проявлениями сверхъестественного. Молодой лондонский юрист Артур Киппс вынужден оставить своего 4-летнего сына и отправиться в командировку в уединенную северную деревушку, чтобы составить реестр документов, оставшихся от скончавшегося хозяина поместья Ил Марш. Добравшись до места и пообщавшись с негостеприимными местными жителями, он начинает понимать, что над деревушкой нависла тень мрачной тайны.
stik : 9

Видео
Идентификатор : 1
Формат : AVC
Формат/Информация : Advanced Video Codec
Профиль формата : <a href="mailto:Baseline@L3.0" class="postLink">Baseline@L3.0</a>
Параметр CABAC формата : Нет
Параметр ReFrames формата : 4 кадра
Идентификатор кодека : avc1
Идентификатор кодека/Информация : Advanced Video Coding
Продолжительность : 1 ч. 35 м.
Вид битрейта : Переменный
Битрейт : 1200 Кбит/сек
Ширина : 720 пикселей
Высота : 320 пикселей
Соотношение сторон : 2,25:1
Режим частоты кадров : Переменный
Частота кадров : 23,976 кадра/сек
Минимальная частота кадров : 23,810 кадра/сек
Максимальная частота кадров : 24,390 кадра/сек
Цветовое пространство : YUV
Субдискретизация насыщенности : 4:2:0
Битовая глубина : 8 бит
Тип развёртки : Прогрессивная
Бит/(Пиксели*Кадры) : 0.217
Размер потока : 818 Мбайт (82%)
Библиотека кодирования : x264 core 120
Настройки программы : cabac=0 / ref=4 / deblock=1:0:0 / analyse=0x1:0x111 / me=umh / subme=9 / psy=1 / psy_rd=1.00:0.00 / mixed_ref=1 / me_range=16 / chroma_me=1 / trellis=0 / 8x8dct=0 / cqm=0 / deadzone=21,11 / fast_pskip=1 / chroma_qp_offset=-2 / threads=6 / sliced_threads=0 / nr=0 / decimate=1 / interlaced=0 / bluray_compat=0 / constrained_intra=0 / bframes=0 / weightp=0 / keyint=240 / keyint_min=24 / scenecut=40 / intra_refresh=0 / rc_lookahead=40 / rc=2pass / mbtree=1 / bitrate=1200 / ratetol=1.0 / qcomp=0.60 / qpmin=3 / qpmax=69 / qpstep=4 / cplxblur=20.0 / qblur=0.5 / ip_ratio=1.40 / aq=1:1.00
Дата кодирования : UTC 2012-06-28 10:39:50
Дата пометки : UTC 2012-06-28 11:55:00
Основные цвета : BT.709-5, BT.1361, IEC 61966-2-4, SMPTE RP177
Характеристики трансфера : BT.709-5, BT.1361
Коэффициенты матрицы : BT.709-5, BT.1361, IEC 61966-2-4 709, SMPTE RP177

Аудио #1
Идентификатор : 2
Формат : AAC
Формат/Информация : Advanced Audio Codec
Профиль формата : LC
Идентификатор кодека : 40
Продолжительность : 1 ч. 35 м.
Вид битрейта : Переменный
Битрейт : 128 Кбит/сек
Максимальный битрейт : 245 Кбит/сек
Каналы : 2 канала
Расположение каналов : Front: L R
Частота : 48,0 КГц
Метод сжатия : С потерями
Размер потока : 87,2 Мбайт (9%)
Язык : Russian
Дата кодирования : UTC 2012-06-28 10:39:50
Дата пометки : UTC 2012-06-28 11:54:59

Аудио #2
Идентификатор : 3
Формат : AAC
Формат/Информация : Advanced Audio Codec
Профиль формата : LC
Идентификатор кодека : 40
Продолжительность : 1 ч. 35 м.
Вид битрейта : Переменный
Битрейт : 128 Кбит/сек
Максимальный битрейт : 160 Кбит/сек
Каналы : 2 канала
Расположение каналов : Front: L R
Частота : 48,0 КГц
Метод сжатия : С потерями
Размер потока : 87,3 Мбайт (9%)
Язык : English
Дата кодирования : UTC 2012-06-28 10:39:50
Дата пометки : UTC 2012-06-28 11:54:59

Текст
Идентификатор : 4
Формат : Apple text
Идентификатор кодека : text
Продолжительность : 1 ч. 35 м.
Вид битрейта : Переменный
Битрейт : 1 бит/сек
Размер потока : 375 байт (0%)
Дата кодирования : UTC 2012-06-28 10:39:50
Дата пометки : UTC 2012-06-28 11:55:00



Трекер:  [ 05-Сен-2012 07:23 ]

  

Скачать .torrent

Размер .torrent файла 20 KB


Размер: 997 MB
Хэш (hash) релиза: d7ed6d65e527235551610da236d9cf00a7b565e7

Еще никто не оставлял запись к записи скачать торрент Женщина в черном The Woman in Black . Будь первым!

!Обратная связь