Скачать через торрент Жутко громко и запредельно близко Extremely Loud & Incredibly Close бесплатно русская версия torrent активатор

Если у вас наблюдаются проблемы со скриншотами, переходом по ссылками, скачиванием торрентов - проблемы в блокировщике рекламы AdBlock. #хорошегоДня!


Статистика раздачи
Размер:  715 MB   |    Зарегистрирован:  5 лет 1 месяц   |    .torrent скачан:  47 раз   |   
Раздают:  1  
   
Загрузка...
 
Автор Сообщение

L


Жутко громко и запредельно близко
Extremely Loud & Incredibly Close
Год выпуска: 2011
Страна: США
Жанр: Драма
Продолжительность: 02:09:28
Перевод: Профессиональный (многоголосый закадровый) Лицензия
Режиссер: Стивен Долдри / Stephen Daldry
Сценарий: Эрик Рот, Джонатан Сафран Фоер
Продюсер: Скотт Рудин, Эли Буш, Селия Д. Костас, ...
Оператор: Крис Менгис
Композитор: Александр Деспла
Художник: К.К. Баррет, Питер Рогнесс, Энн Рот, ...
Монтаж: Клер Симпсон
В ролях: Том Хэнкс, Сандра Буллок, Томас Хорн, Макс фон Сюдов, Виола Дэвис, Джон Гудмен, Джеффри Райт, Зои Колдуэлл, Дэннис Хирн, Пол Клементовиц
Описание: Десятилетний Оскар теряет отца в день атаки на башни-близнецы в Нью-Йорке. По всему городу Оскар ищет информацию, которая должна привести его к разрешению загадки отца. На пути мальчику встретятся разные люди, но их всех объединяет страшная катастрофа, поэтому каждый пытается справиться с собственным горем.
КиноПоиск.Ru: 7.588 (3 339)
IMDb: 6.70 (29 160)
Качество: HDRip
Формат: MP4
Видео кодек: H.264
Аудио кодек: AAC
Видео: 480x200 (2.40:1), 23.976 fps, 640 kbps
Аудио : 48 kHz, 2 ch, 128 kbps
Complete name : D:\Мои раздачи\Extremely Loud & Incredibly\Extremely Loud & Incredibly.mp4
Format : MPEG-4
Format profile : Base Media
Codec ID : isom
File size : 715 MiB
Duration : 2h 9mn
Overall bit rate mode : Variable
Overall bit rate : 771 Kbps
Movie name : Extremely Loud & Incredibly Close
Performer : Стивен Долдри
Genre : Drama, Adventure
Encoded date : UTC 2012-07-12 08:37:33
Tagged date : UTC 2012-07-12 08:37:33
Writing application : Yamb 2.1.0.0 []http://yamb.unite-video.com]
Cover : Yes
desc : Десятилетний Оскар теряет отца в день атаки на башни-близнецы в Нью-Йорке...
ldes : Десятилетний Оскар теряет отца в день атаки на башни-близнецы в Нью-Йорке. По всему городу Оскар ищет информацию, которая должна привести его к разрешению загадки отца. На пути мальчику встретятся разные люди, но их всех объединяет страшная катастрофа, поэтому каждый пытается справиться с собственным горем.
stik : 0
iTunMOVI : <?xml version="1.0" encoding="UTF-8"?> / <!DOCTYPE plist PUBLIC "-//Apple//DTD PLIST 1.0//EN" "http://www.apple.com/DTDs/PropertyList-1.0.dtd"> / <plist version="1.0"> / <dict> / <key>cast</key> / <array> / <dict> / <key>name</key> / <string>Том Хэнкс</string> / </dict> / <dict> / <key>name</key> / <string>Сандра Буллок</string> / </dict> / <dict> / <key>name</key> / <string>Томас Хорн</string> / </dict> / <dict> / <key>name</key> / <string>Макс фон Сюдов</string> / </dict> / <dict> / <key>name</key> / <string>Виола Дэвис</string> / </dict> / <dict> / <key>name</key> / <string>Джон Гудмен</string> / </dict> / <dict> / <key>name</key> / <string>Джеффри Райт</string> / </dict> / <dict> / <key>name</key> / <string>Зои Колдуэлл</string> / </dict> / <dict> / <key>name</key> / <string>Дэннис Хирн</string> / </dict> / <dict> / <key>name</key> / <string>Пол Клементовиц</string> / </dict> / </array> / <key>directors</key> / <array> / <dict> / <key>name</key> / <string>Стивен Долдри</string> / </dict> / </array> / </dict> / </plist>
iTunEXTC : mpaa|PG-13|300|

Video
ID : 1
Format : AVC
Format/Info : Advanced Video Codec
Format profile : <a href="mailto:Baseline@L3.0" class="postLink">Baseline@L3.0</a>
Format settings, CABAC : No
Format settings, ReFrames : 6 frames
Codec ID : avc1
Codec ID/Info : Advanced Video Coding
Duration : 2h 9mn
Bit rate : 640 Kbps
Maximum bit rate : 2 557 Kbps
Width : 480 pixels
Height : 200 pixels
Display aspect ratio : 2.40:1
Frame rate mode : Constant
Frame rate : 23.976 fps
Color space : YUV
Chroma subsampling : 4:2:0
Bit depth : 8 bits
Scan type : Progressive
Bits/(Pixel*Frame) : 0.278
Stream size : 593 MiB (83%)
Writing library : x264 core 120 r2120+639 552713c
Encoding settings : cabac=0 / ref=6 / deblock=1:-1:-1 / analyse=0x1:0x111 / me=umh / subme=9 / psy=1 / fade_compensate=0.00 / psy_rd=1.00:0.00 / mixed_ref=1 / me_range=16 / chroma_me=1 / trellis=0 / 8x8dct=0 / cqm=0 / deadzone=21,11 / fast_pskip=0 / chroma_qp_offset=-2 / threads=6 / sliced_threads=0 / nr=0 / decimate=0 / interlaced=0 / bluray_compat=0 / constrained_intra=0 / fgo=0 / bframes=0 / weightp=0 / keyint=250 / keyint_min=23 / scenecut=40 / intra_refresh=0 / rc_lookahead=60 / rc=2pass / mbtree=1 / bitrate=640 / ratetol=1.0 / qcomp=0.60 / qpmin=0 / qpmax=69 / qpstep=4 / cplxblur=20.0 / qblur=0.5 / ip_ratio=1.40 / aq=1:1.00
Encoded date : UTC 2012-07-13 08:07:35
Tagged date : UTC 2012-07-12 08:37:54

Audio
ID : 2
Format : AAC
Format/Info : Advanced Audio Codec
Format profile : LC
Codec ID : 40
Duration : 2h 9mn
Bit rate mode : Variable
Bit rate : 128 Kbps
Maximum bit rate : 138 Kbps
Channel(s) : 2 channels
Channel positions : Front: L R
Sampling rate : 48.0 KHz
Compression mode : Lossy
Stream size : 119 MiB (17%)
Language : Russian
Encoded date : UTC 2012-07-12 08:37:53
Tagged date : UTC 2012-07-12 08:37:54


Трекер:  [ 05-Сен-2012 07:12 ]

  

Скачать .torrent

Размер .torrent файла 14 KB


Размер: 715 MB
Хэш (hash) релиза: dd82a17f5847074cf3d5d49aa7a46ef370f74037

Еще никто не оставлял запись к записи скачать торрент Жутко громко и запредельно близко Extremely Loud & Incredibly Close . Будь первым!

!Обратная связь