Скачать через торрент Наруто Ураганные Хроники Фильм 5: Кровавая тюрьма Naruto Shippuuden Movie 5: Blood Prison бесплатно русская версия torrent активатор

Если у вас наблюдаются проблемы со скриншотами, переходом по ссылками, скачиванием торрентов - проблемы в блокировщике рекламы AdBlock. #хорошегоДня!


Статистика раздачи
Размер:  895 MB   |    Зарегистрирован:  5 лет 1 месяц   |    .torrent скачан:  57 раз   |   
Раздают:  1  
   
Загрузка...
 
Автор Сообщение

L


Наруто Ураганные Хроники Фильм 5: Кровавая тюрьма
Naruto Shippuuden Movie 5: Blood Prison
Год выпуска: 2011
Страна: Япония
Жанр: аниме, мультфильм
Продолжительность: 01:42:23
Перевод : Любительский одноголосый (NIKITOS / SHIZA)
Субтитры: Русские, Английские
Режиссёр: Масахико Мурата
Описание: Наруто сажают в тюрьму под названием «Кровавая тюрьма» за покушение на убийство Райкагэ и убийство нескольких синоби, и Наруто пытается доказать свою невиновность.
Качество: DVDRip
Формат: *.m4v
Видео кодек: H.264
аудио кодек: ААС
Разрешение: 576x320
Другие параметры видео: 960 Kbps, 23.976 fps
Аудио #1 (Русская дорожка): 128 Kbps, 48.0 KHz
Аудио #2 (Японская дорожка): 128 Kbps, 48.0 KHz
Вшитая обложка: есть
Доп. теги (режиссёр, актёры и т.д.): прописаны
Главы: прописаны
General
Complete name : C:\Users\Narek\Desktop\Наруто Ураганные Хроники Фильм 8 - Кровавая тюрьма, Naruto Shippuuden Movie 5 - Blood Prison.m4v
Format : MPEG-4
Format profile : Base Media / Version 2
Codec ID : mp42
File size : 895 MiB
Duration : 1h 42mn
Overall bit rate mode : Variable
Overall bit rate : 1 222 Kbps
Movie name : Наруто Ураганные Хроники Фильм 8 - Кровавая тюрьма, Naruto Shippuuden Movie 5 - Blood Prison
Genre : аниме, мультфильм
Recorded date : 30.07.11
Encoded date : UTC 2012-08-20 12:50:52
Tagged date : UTC 2012-08-20 14:23:10
Writing application : HandBrake 0.9.8 2012071700
Cover : Yes
desc : Наруто сажают в тюрьму под названием «Кровавая тюрьма» за покушение на убийство Райкагэ и убийство нескольких синоби, и Наруто пытается доказать свою невиновность.
hdvd : 0
stik : 9
iTunMOVI : <?xml version="1.0" encoding="UTF-8"?> / <!DOCTYPE plist PUBLIC "-//Apple//DTD PLIST 1.0//EN" "http://www.apple.com/DTDs/PropertyList-1.0.dtd"> / <plist version="1.0"> / <dict> / <key>directors</key> / <array> / <dict> / <key>name</key> / <string>Масахико Мурата</string> / </dict> / </array> / </dict> / </plist>

Video
ID : 1
Format : AVC
Format/Info : Advanced Video Codec
Format profile : <a href="mailto:Baseline@L2.1" class="postLink">Baseline@L2.1</a>
Format settings, CABAC : No
Format settings, ReFrames : 4 frames
Codec ID : avc1
Codec ID/Info : Advanced Video Coding
Duration : 1h 42mn
Bit rate mode : Variable
Bit rate : 960 Kbps
Width : 560 pixels
Height : 320 pixels
Display aspect ratio : 16:9
Frame rate mode : Variable
Frame rate : 23.976 fps
Minimum frame rate : 11.905 fps
Maximum frame rate : 24.390 fps
Color space : YUV
Chroma subsampling : 4:2:0
Bit depth : 8 bits
Scan type : Progressive
Bits/(Pixel*Frame) : 0.223
Stream size : 703 MiB (79%)
Writing library : x264 core 120
Encoding settings : cabac=0 / ref=4 / deblock=1:0:0 / analyse=0x1:0x111 / me=umh / subme=6 / psy=1 / psy_rd=1.00:0.00 / mixed_ref=1 / me_range=16 / chroma_me=1 / trellis=0 / 8x8dct=0 / cqm=0 / deadzone=21,11 / fast_pskip=1 / chroma_qp_offset=-2 / threads=3 / sliced_threads=0 / nr=0 / decimate=1 / interlaced=0 / bluray_compat=0 / constrained_intra=0 / bframes=0 / weightp=0 / keyint=240 / keyint_min=24 / scenecut=40 / intra_refresh=0 / rc_lookahead=40 / rc=2pass / mbtree=1 / bitrate=960 / ratetol=1.0 / qcomp=0.60 / qpmin=3 / qpmax=69 / qpstep=4 / cplxblur=20.0 / qblur=0.5 / ip_ratio=1.40 / aq=1:1.00
Encoded date : UTC 2012-08-20 12:50:52
Tagged date : UTC 2012-08-20 13:47:12
Color primaries : BT.601-6 525, BT.1358 525, BT.1700 NTSC, SMPTE 170M
Transfer characteristics : BT.709-5, BT.1361
Matrix coefficients : BT.601-6 525, BT.1358 525, BT.1700 NTSC, SMPTE 170M

Audio #1
ID : 2
Format : AAC
Format/Info : Advanced Audio Codec
Format profile : LC
Codec ID : 40
Duration : 1h 42mn
Bit rate mode : Variable
Bit rate : 128 Kbps
Maximum bit rate : 236 Kbps
Channel(s) : 2 channels
Channel positions : Front: L R
Sampling rate : 48.0 KHz
Compression mode : Lossy
Stream size : 93.6 MiB (10%)
Language : Japanese
Encoded date : UTC 2012-08-20 12:50:52
Tagged date : UTC 2012-08-20 13:47:11

Audio #2
ID : 3
Format : AAC
Format/Info : Advanced Audio Codec
Format profile : LC
Codec ID : 40
Duration : 1h 42mn
Bit rate mode : Variable
Bit rate : 128 Kbps
Maximum bit rate : 227 Kbps
Channel(s) : 2 channels
Channel positions : Front: L R
Sampling rate : 48.0 KHz
Compression mode : Lossy
Stream size : 93.7 MiB (10%)
Language : Russian
Encoded date : UTC 2012-08-20 12:50:52
Tagged date : UTC 2012-08-20 13:47:11

Text #1
ID : 4
Format : Timed text
Muxing mode : sbtl
Codec ID : tx3g
Duration : 1h 42mn
Bit rate mode : Variable
Bit rate : 51 bps
Stream size : 38.0 KiB (0%)
Language : English
Encoded date : UTC 2012-08-20 12:50:52
Tagged date : UTC 2012-08-20 13:47:11

Text #2
ID : 5
Format : Timed text
Muxing mode : sbtl
Codec ID : tx3g
Duration : 1h 42mn
Bit rate mode : Variable
Bit rate : 74 bps
Stream size : 55.7 KiB (0%)
Language : Russian
Encoded date : UTC 2012-08-20 12:50:52
Tagged date : UTC 2012-08-20 13:47:11

Text #3
ID : 6
Format : Apple text
Codec ID : text
Duration : 1h 42mn
Duration_LastFrame : -7mn 36s
Bit rate mode : Variable
Bit rate : 0 bps
Stream size : 155 Bytes (0%)
Encoded date : UTC 2012-08-20 14:23:10
Tagged date : UTC 2012-08-20 14:23:10


Трекер:  [ 05-Сен-2012 07:07 ]

  

Скачать .torrent

Размер .torrent файла 18 KB


Размер: 895 MB
Хэш (hash) релиза: 2166e76a0fa302d50ef52960db09c75af00fe18c

Еще никто не оставлял запись к записи скачать торрент Наруто Ураганные Хроники Фильм 5: Кровавая тюрьма Naruto Shippuuden Movie 5: Blood Prison . Будь первым!

!Обратная связь