Скачать через торрент Готика Gothika бесплатно русская версия torrent активатор

Если у вас наблюдаются проблемы со скриншотами, переходом по ссылками, скачиванием торрентов - проблемы в блокировщике рекламы AdBlock. #хорошегоДня!


Статистика раздачи
Размер:  542 MB   |    Зарегистрирован:  5 лет 1 месяц   |    .torrent скачан:  39 раз   |   
Раздают:  1  
   
Загрузка...
 
Автор Сообщение

L


Готика / Gothika

Год выпуска: 2003
Страна: США
Жанр: ужасы, триллер, детектив
Продолжительность: 01:38:07
Перевод : Профессиональный (полное дублирование)
Русские субтитры: нет
Режиссёр: Матьё Кассовиц / Mathieu Kassovitz
В ролях: Холли Берри, Роберт Дауни мл., Чарльз С. Даттон, Джон Кэрролл Линч, Бернард Хилл, Пенелопа Крус, Дориан Хэрвуд, Бронуэн Мэнтел, Кэтлин Мэкки, Мэттью Дж. Тейлор
Описание: Фильм повествует о женщине-психиатре, которая однажды оказывается пациенткой больницы для невменяемых преступников, где она прежде работала.
[b]Качество
: BDRip
Формат: *.m4v
Видео кодек: H.264
аудио кодек: ААС
Разрешение: 480x256
Другие параметры видео: AVC at 640 Кбит/сек, 480 x 256 (1.875) at 23.976 fps
Аудио: AAC at 128 Кбит/сек, 2 канала, 48,0 КГц
Вшитая обложка: есть
Доп. теги (режиссёр, актёры и т.д.): прописаны
Телешоу/видеоклип : не требуется
Главы: нет
Серия/сезон: не требуется
Общее
Полное имя : E:\Gothika.m4v
Формат : MPEG-4
Профиль формата : Base Media / Version 2
Идентификатор кодека : mp42
Размер файла : 542 Мбайт
Продолжительность : 1 ч. 38 м.
Режим общего битрейта : Переменный
Общий поток : 772 Кбит/сек
Название фильма : Gothika
Исполнитель : Матьё Кассовиц
Жанр : Thriller
Дата записи : 2003-11-13
Дата кодирования : UTC 2012-08-10 16:00:44
Дата пометки : UTC 2012-08-10 16:44:38
Программа кодирования : HandBrake 0.9.6 2012022800
Обложка : Yes
iTunEXTC : mpaa|R|400|
iTunMOVI : <?xml version="1.0" encoding="UTF-8"?> / <!DOCTYPE plist PUBLIC "-//Apple//DTD PLIST 1.0//EN" "http://www.apple.com/DTDs/PropertyList-1.0.dtd"> / <plist version="1.0"> / <dict> / <key>cast</key> / <array> / <dict> / <key>name</key> / <string>Холли Берри</string> / </dict> / <dict> / <key>name</key> / <string>Роберт Дауни-мл.</string> / </dict> / <dict> / <key>name</key> / <string>Чарльз Даттон</string> / </dict> / </array> / <key>directors</key> / <array> / <dict> / <key>name</key> / <string>Матьё Кассовиц</string> / </dict> / </array> / <key>producers</key> / <array> / <dict> / <key>name</key> / <string>Роберт Земекис</string> / </dict> / <dict> / <key>name</key> / <string>Сьюзан Дауни</string> / </dict> / <dict> / <key>name</key> / <string>Л. Левин</string> / </dict> / </array> / <key>screenwriters</key> / <array> / <dict> / <key>name</key> / <string>Себастьян Гутьеррес</string> / </dict> / </array> / </dict> / </plist>
desc : Фильм повествует о женщине-психиатре, которая однажды оказывается пациенткой больницы для невменяемых преступников, где она прежде работала.
ldes : Фильм повествует о женщине-психиатре, которая однажды оказывается пациенткой больницы для невменяемых преступников, где она прежде работала. / / Вдобавок ко всему, ее обвиняют в совершении жестокого убийства, о котором она ничего не помнит. Пытаясь разобраться в происходящем, она сталкивается с необъяснимыми мистическими происшествиями…
stik : 9

Видео
Идентификатор : 1
Формат : AVC
Формат/Информация : Advanced Video Codec
Профиль формата : <a href="mailto:Baseline@L2.1" class="postLink">Baseline@L2.1</a>
Параметр CABAC формата : Нет
Параметр ReFrames формата : 6 кадров
Идентификатор кодека : avc1
Идентификатор кодека/Информация : Advanced Video Coding
Продолжительность : 1 ч. 38 м.
Вид битрейта : Переменный
Битрейт : 640 Кбит/сек
Ширина : 480 пикселей
Высота : 256 пикселей
Соотношение сторон : 1,85:1
Режим частоты кадров : Переменный
Частота кадров : 23,976 кадра/сек
Минимальная частота кадров : 23,974 кадра/сек
Максимальная частота кадров : 23,981 кадра/сек
Цветовое пространство : YUV
Субдискретизация насыщенности : 4:2:0
Битовая глубина : 8 бит
Тип развёртки : Прогрессивная
Бит/(Пиксели*Кадры) : 0.217
Размер потока : 449 Мбайт (83%)
Библиотека кодирования : x264 core 120
Настройки программы : cabac=0 / ref=6 / deblock=1:0:0 / analyse=0x1:0x111 / me=umh / subme=8 / psy=1 / psy_rd=1.00:0.00 / mixed_ref=1 / me_range=16 / chroma_me=1 / trellis=0 / 8x8dct=0 / cqm=0 / deadzone=21,11 / fast_pskip=1 / chroma_qp_offset=-2 / threads=6 / sliced_threads=0 / nr=0 / decimate=1 / interlaced=0 / bluray_compat=0 / constrained_intra=0 / bframes=0 / weightp=0 / keyint=240 / keyint_min=24 / scenecut=40 / intra_refresh=0 / rc_lookahead=40 / rc=2pass / mbtree=1 / bitrate=640 / ratetol=1.0 / qcomp=0.60 / qpmin=3 / qpmax=69 / qpstep=4 / cplxblur=20.0 / qblur=0.5 / ip_ratio=1.40 / aq=1:1.00
Дата кодирования : UTC 2012-08-10 16:00:44
Дата пометки : UTC 2012-08-10 16:38:27
Основные цвета : BT.601-6 525, BT.1358 525, BT.1700 NTSC, SMPTE 170M
Характеристики трансфера : BT.709-5, BT.1361
Коэффициенты матрицы : BT.601-6 525, BT.1358 525, BT.1700 NTSC, SMPTE 170M

Аудио
Идентификатор : 2
Формат : AAC
Формат/Информация : Advanced Audio Codec
Профиль формата : LC
Идентификатор кодека : 40
Продолжительность : 1 ч. 38 м.
Вид битрейта : Переменный
Битрейт : 128 Кбит/сек
Максимальный битрейт : 226 Кбит/сек
Каналы : 2 канала
Расположение каналов : Front: L R
Частота : 48,0 КГц
Метод сжатия : С потерями
Размер потока : 89,8 Мбайт (17%)
Дата кодирования : UTC 2012-08-10 16:00:44
Дата пометки : UTC 2012-08-10 16:38:25



Трекер:  [ 05-Сен-2012 07:04 ]

  

Скачать .torrent

Размер .torrent файла 11 KB


Размер: 542 MB
Хэш (hash) релиза: d04ecc43f22099422d4a3a0172f5ae505beef686

Еще никто не оставлял запись к записи скачать торрент Готика Gothika . Будь первым!

!Обратная связь