Скачать через торрент Неудержимые The Expendables бесплатно русская версия torrent активатор

Если у вас наблюдаются проблемы со скриншотами, переходом по ссылками, скачиванием торрентов - проблемы в блокировщике рекламы AdBlock. #хорошегоДня!


Статистика раздачи
Размер:  467 MB   |    Зарегистрирован:  5 лет 1 месяц   |    .torrent скачан:  46 раз   |   
Раздают:  1  
   
Загрузка...
 
Автор Сообщение

L


Неудержимые / The Expendables

Год выхода: 2010
Страна: США
Жанр: боевик, триллер, приключения
Продолжительность: 01:43:28
Перевод: Профессиональный (дублированный)
Субтитры: русские
Режиссер: Сильвестр Сталлоне / Sylvester Stallone
В ролях: Сильвестр Сталлоне, Джейсон Стэтхэм, Джет Ли, Дольф Лундгрен, Эрик Робертс, Рэнди Кутюр, Стив Остин, Дэвид Зайас, Жизель Итье, Харизма Карпентер
О фильме: Отряд профессиональных наёмников и отчаянных парней во главе с Барни Россом получает непростое задание — любой ценой найти и уничтожить кровавого тирана-диктатора, нагнетающего страх на мирное население и сеющего хаос в южноамериканской стране. Отправляясь на выполнение нелёгкой миссии, закалённые огнём и водой, прошедшие не одну войну, люди Росса попадают в самое пекло. Отныне им придётся выживать: сплотиться и достигнуть цели, либо отчаяться и погибнуть. И всё же эти храбрые, поистине невозмутимые ребята готовы реализовать даже не реализуемое. Но не всё так просто, как кажется на первый взгляд…
Качество: BDRip
Формат: *.m4v
Видео кодек: H.264
аудио кодек: ААС
Разрешение: 320x144
Другие параметры видео: AVC at 500 Кбит/сек, 320 x 144 (2.222) at 23.976 fps
Аудио: AAC at 128 Кбит/сек, 2 канала, 48,0 КГц
Вшитая обложка: есть
Доп. теги (режиссёр, актёры и т.д.): прописаны
Телешоу/видеоклип : не требуется
Главы: есть
Серия/сезон: не требуется
Общее
Полное имя : E:\The Expendables [iPod].m4v
Формат : MPEG-4
Профиль формата : Base Media / Version 2
Идентификатор кодека : mp42
Размер файла : 467 Мбайт
Продолжительность : 1 ч. 43 м.
Режим общего битрейта : Переменный
Общий поток : 631 Кбит/сек
Название фильма : The Expendables
Исполнитель : Сильвестр Сталлоне
Жанр : Action
Дата записи : 2010-08-03
Дата кодирования : UTC 2012-06-29 15:42:45
Дата пометки : UTC 2012-06-29 16:04:10
Программа кодирования : HandBrake 0.9.6 2012022800
Обложка : Yes
iTunEXTC : mpaa|R|400|
iTunMOVI : <?xml version="1.0" encoding="UTF-8"?> / <!DOCTYPE plist PUBLIC "-//Apple//DTD PLIST 1.0//EN" "http://www.apple.com/DTDs/PropertyList-1.0.dtd"> / <plist version="1.0"> / <dict> / <key>cast</key> / <array> / <dict> / <key>name</key> / <string>Сильвестр Сталлоне</string> / </dict> / <dict> / <key>name</key> / <string>Джейсон Стэйтем</string> / </dict> / <dict> / <key>name</key> / <string>Джет Ли</string> / </dict> / </array> / <key>directors</key> / <array> / <dict> / <key>name</key> / <string>Сильвестр Сталлоне</string> / </dict> / </array> / <key>producers</key> / <array> / <dict> / <key>name</key> / <string>Авэ Лернер</string> / </dict> / <dict> / <key>name</key> / <string>Кевин Кинг Темплтон</string> / </dict> / <dict> / <key>name</key> / <string>Джон Томпсон</string> / </dict> / </array> / <key>screenwriters</key> / <array> / <dict> / <key>name</key> / <string>Дэйв Каллахэм</string> / </dict> / <dict> / <key>name</key> / <string>Сильвестр Сталлоне</string> / </dict> / </array> / </dict> / </plist>
desc : Отряд профессиональных наёмников и отчаянных парней во главе с Барни Россом получает непростое задание — любой ценой найти и уничтожить кровавого тирана-диктатора, нагнетающего страх на мирное население и сеющего хаос в южноамериканской стране.
ldes : Отряд профессиональных наёмников и отчаянных парней во главе с Барни Россом получает непростое задание — любой ценой найти и уничтожить кровавого тирана-диктатора, нагнетающего страх на мирное население и сеющего хаос в южноамериканской стране. / / Отправляясь на выполнение нелёгкой миссии, закалённые огнём и водой, прошедшие не одну войну, люди Росса попадают в самое пекло. Отныне им придётся выживать: сплотиться и достигнуть цели, либо отчаяться и погибнуть. И всё же эти храбрые, поистине невозмутимые ребята готовы реализовать даже не реализуемое. Но не всё так просто, как кажется на первый взгляд…
stik : 9

Видео
Идентификатор : 1
Формат : AVC
Формат/Информация : Advanced Video Codec
Профиль формата : <a href="mailto:Baseline@L3.0" class="postLink">Baseline@L3.0</a>
Параметр CABAC формата : Нет
Параметр ReFrames формата : 1 кадр
Идентификатор кодека : avc1
Идентификатор кодека/Информация : Advanced Video Coding
Продолжительность : 1 ч. 43 м.
Вид битрейта : Переменный
Битрейт : 500 Кбит/сек
Ширина : 320 пикселей
Высота : 144 пикселя
Соотношение сторон : 2,222
Режим частоты кадров : Переменный
Частота кадров : 23,976 кадра/сек
Минимальная частота кадров : 23,810 кадра/сек
Максимальная частота кадров : 24,390 кадра/сек
Цветовое пространство : YUV
Субдискретизация насыщенности : 4:2:0
Битовая глубина : 8 бит
Тип развёртки : Прогрессивная
Бит/(Пиксели*Кадры) : 0.453
Размер потока : 369 Мбайт (79%)
Библиотека кодирования : x264 core 120
Настройки программы : cabac=0 / ref=1 / deblock=1:0:0 / analyse=0x1:0x131 / me=umh / subme=6 / psy=1 / psy_rd=1.00:0.00 / mixed_ref=0 / me_range=16 / chroma_me=1 / trellis=0 / 8x8dct=0 / cqm=0 / deadzone=21,11 / fast_pskip=0 / chroma_qp_offset=-2 / threads=6 / sliced_threads=0 / nr=0 / decimate=1 / interlaced=0 / bluray_compat=0 / constrained_intra=0 / bframes=0 / weightp=0 / keyint=240 / keyint_min=24 / scenecut=40 / intra_refresh=0 / rc_lookahead=40 / rc=2pass / mbtree=1 / bitrate=500 / ratetol=1.0 / qcomp=0.60 / qpmin=3 / qpmax=69 / qpstep=4 / cplxblur=20.0 / qblur=0.5 / vbv_maxrate=768 / vbv_bufsize=2000 / nal_hrd=none / ip_ratio=1.40 / aq=1:1.00
Дата кодирования : UTC 2012-06-29 15:42:45
Дата пометки : UTC 2012-06-29 16:01:21
Основные цвета : BT.709-5, BT.1361, IEC 61966-2-4, SMPTE RP177
Характеристики трансфера : BT.709-5, BT.1361
Коэффициенты матрицы : BT.709-5, BT.1361, IEC 61966-2-4 709, SMPTE RP177

Аудио
Идентификатор : 2
Формат : AAC
Формат/Информация : Advanced Audio Codec
Профиль формата : LC
Идентификатор кодека : 40
Продолжительность : 1 ч. 43 м.
Вид битрейта : Переменный
Битрейт : 128 Кбит/сек
Максимальный битрейт : 267 Кбит/сек
Каналы : 2 канала
Расположение каналов : Front: L R
Частота : 48,0 КГц
Метод сжатия : С потерями
Размер потока : 94,7 Мбайт (20%)
Язык : Russian
Дата кодирования : UTC 2012-06-29 15:42:45
Дата пометки : UTC 2012-06-29 16:01:20

Текст
Идентификатор : 3
Формат : Apple text
Идентификатор кодека : text
Продолжительность : 1 ч. 43 м.
Вид битрейта : Переменный
Битрейт : 0 бит/сек
Размер потока : 375 байт (0%)
Дата кодирования : UTC 2012-06-29 15:42:45
Дата пометки : UTC 2012-06-29 16:01:21
[/code]




Трекер:  [ 05-Сен-2012 06:57 ]

  

Скачать .torrent

Размер .torrent файла 18 KB


Размер: 467 MB
Хэш (hash) релиза: e7365801c04fd6c26f3edf126c5918e8f4a53030

Торренты, похожие на Неудержимые The Expendables скачать торрент

Форум Название Автор Размер S L Добавлен
Видео (Фильмы/Клипы) ·· [VIDEO] Неудержимые / The Expendables (Сильвестр Сталлоне / Sylvester Stallone) [2010, боевик, триллер, приключения, HDRip] [Theatrical] [MP4, 640x] Dub РЕН-ТВ Galfimbul 936797574893 MB 0 0 1474036530

17:35

16-Сен-16

Apple Mobile Device Software ·· Неудержимые / The Expendables (Сильвестр Сталлоне / Sylvester Stallone) [2010, Боевик, триллер, приключения, BDRip, 720x320] 2xRus + Eng, Subs (Rus, Eng) L 12399297651.15 GB 0 0 1346818980

07:23

5-Сен-12

Видео (iPhone/iPod Touch/iPad) ·· Неудержимые. Трилогия / The Expendables. Trilogy (Сильвестр Сталлоне, Саймон Уэст, Патрик Хьюз) [2010,2012,2014, США, боевик, приключения, BDRip HD (1080p, 720p), SD (480p)] DUB, AVO, Original + SUB (rus, eng) + iTunes Extras for The Expendables Galfimbul 7048502709565.64 GB 0 0 1460582255

00:17

14-Апр-16

Видео (Фильмы/Клипы) ·· [VIDEO] Неудержимые 3 / The Expendables 3 (Патрик Хьюз / Patrick Hughes) [2014, боевик, триллер, приключения, HDRip] [MP4, 960x] [Extended Cut] Dub, VO Володарский, VO Горчаков Galfimbul 16429617541.53 GB 0 0 1429804499

18:54

23-Апр-15

Видео (Фильмы/Клипы) ·· [VIDEO] Неудержимые 3 / The Expendables 3 (Патрик Хьюз / Patrick Hughes) [2014, боевик, триллер, приключения, HDRip] [MP4, 960x] [Extended Cut] Dub Galfimbul 13762582511.28 GB 0 0 1418013200

07:33

8-Дек-14

Видео (iPhone/iPod Touch/iPad) ·· Неудержимые 3 [Неклассифицируемая версия] / The Expendables 3 [Unrated Edition] (Патрик Хьюз) [2014, США, Франция, боевик, триллер, приключения, BDRip HD (1080p, 720p), SD] DUB, AVO, Original + SUB (eng) Galfimbul 2194720842820.44 GB 0 0 1417546733

21:58

2-Дек-14

Еще никто не оставлял запись к записи скачать торрент Неудержимые The Expendables . Будь первым!

!Обратная связь