Скачать через торрент музыку Scorpions 2 CD - Fly To The Rainbow бесплатно без регистрации torrent

Если у вас наблюдаются проблемы со скриншотами, переходом по ссылками, скачиванием торрентов - проблемы в блокировщике рекламы AdBlock. #хорошегоДня!


Статистика раздачи
Размер:  509 MB   |    Зарегистрирован:  5 лет 2 месяца   |    .torrent скачан:  42 раза   |   
Раздают:  1  
   
Загрузка...
 
Автор Сообщение

Galfimbul

avatar Galfimbul


Scorpions - Fly To The Rainbow (1974), Virgin Killer (1976)
Жанр: Hard Rock
Страна-производитель: US
Год издания: 1974, 1976
Аудиокодек: FLAC (*.flac)
Тип рипа: image+.cue
Битрейт аудио: lossless
Продолжительность: 40:47+35:00
Источник (релизер): собственный рип
Наличие сканов в содержимом раздачи: куда без них
Год выпуска диска: 19?? (original)
Год записи альбома: 1974
Страна-производитель диска: US
Издатель: RCA / BMG
Tracklist:
01. Speedy's Coming (3:38)
02. They Need A Million (4:53)
03. Drifting Sun (7:42)
04. Fly People Fly (5:04)
05. This Is My Song (4:17)
06. Far Away (5:42)
07. Fly To the Rainbow (9:31)
Год выпуска диска: 19?? (original)
Год записи альбома: 1976
Страна-производитель диска: US
Издатель: RCA / BMG
Tracklist:
01. Pictured Life (3:21)
02. Catch Your Train (3:32)
03. In Your Park (3:39)
04. Backstage Queen (3:10)
05. Virgin Killer (3:41)
06. Hell Cat (2:57)
07. Crying Days (4:36)
08. Polar Night (5:07)
09. Yellow Raven (4:59)
Exact Audio Copy V1.0 beta 3 from 29. August 2011

Отчёт EAC об извлечении, выполненном 4. сентября 2012, 19:49

Scorpions / Fly To The Rainbow

Дисковод: Optiarc DVD RW AD-5170A Adapter: 0 ID: 0

Режим чтения : ДостоверностьИспользование точного потока : ДаОтключение кэша аудио : ДаИспользование указателей C2 : Нет

Коррекция смещения при чтении : 48Способность читать области Lead-in и Lead-out : НетЗаполнение пропущенных сэмплов тишиной : ДаУдаление блоков с тишиной в начале и конце : НетПри вычислениях CRC использовались нулевые сэмплы : ДаИнтерфейс : Встроенный Win32-интерфейс для Win NT/2000

Выходной формат : Внутренние WAV-операцииФормат сэмплов : 44.100 Гц; 16 бит; стерео

TOC извлечённого CD

Трек | Старт | Длительность | Начальный сектор | Конечный сектор --------------------------------------------------------------------- 1 | 0:00.00 | 3:37.52 | 0 | 16326 2 | 3:37.52 | 4:53.08 | 16327 | 38309 3 | 8:30.60 | 7:42.12 | 38310 | 72971 4 | 16:12.72 | 5:03.65 | 72972 | 95761 5 | 21:16.62 | 4:17.18 | 95762 | 115054 6 | 25:34.05 | 5:41.50 | 115055 | 140679 7 | 31:15.55 | 9:31.20 | 140680 | 183524

Характеристики диапазона извлечения и сообщения об ошибках

Выбранный диапазон

Имя файла C:\1974 - Fly To The Rainbow (5057-2-R).wav

Пиковый уровень 100.0 % Скорость извлечения 4.5 X Качество диапазона 100.0 % CRC теста F13F1D75 CRC копии F13F1D75 Копирование... OK

Ошибок не произошло

AccurateRip: сводка

Трек 1 точность не определена (достоверность 7) [6332B1F3], AccurateRip вернул [817DA29E] (AR v2)Трек 2 точность не определена (достоверность 7) [E90BFBBE], AccurateRip вернул [922E04A7] (AR v2)Трек 3 точность не определена (достоверность 7) [419BF1D7], AccurateRip вернул [081D4C1D] (AR v2)Трек 4 точность не определена (достоверность 7) [2778E026], AccurateRip вернул [95BC4136] (AR v2)Трек 5 точность не определена (достоверность 7) [7E9B2CD8], AccurateRip вернул [FF7ED2CC] (AR v2)Трек 6 точность не определена (достоверность 7) [52FEDCF4], AccurateRip вернул [CE3790BA] (AR v2)Трек 7 точность не определена (достоверность 7) [772A5BFD], AccurateRip вернул [627D3460] (AR v2)

Ни один трек не прошёл проверки на точностьВ вашей базе может быть иной вариант штамповки диска

Конец отчёта
Exact Audio Copy V1.0 beta 3 from 29. August 2011

Отчёт EAC об извлечении, выполненном 4. сентября 2012, 20:08

Scorpions / Virgin Killer

Дисковод: Optiarc DVD RW AD-5170A Adapter: 0 ID: 0

Режим чтения : ДостоверностьИспользование точного потока : ДаОтключение кэша аудио : ДаИспользование указателей C2 : Нет

Коррекция смещения при чтении : 48Способность читать области Lead-in и Lead-out : НетЗаполнение пропущенных сэмплов тишиной : ДаУдаление блоков с тишиной в начале и конце : НетПри вычислениях CRC использовались нулевые сэмплы : ДаИнтерфейс : Встроенный Win32-интерфейс для Win NT/2000

Выходной формат : Внутренние WAV-операцииФормат сэмплов : 44.100 Гц; 16 бит; стерео

TOC извлечённого CD

Трек | Старт | Длительность | Начальный сектор | Конечный сектор --------------------------------------------------------------------- 1 | 0:00.00 | 3:21.30 | 0 | 15104 2 | 3:21.30 | 3:31.70 | 15105 | 30999 3 | 6:53.25 | 3:38.45 | 31000 | 47394 4 | 10:31.70 | 3:09.70 | 47395 | 61639 5 | 13:41.65 | 3:40.52 | 61640 | 78191 6 | 17:22.42 | 2:56.53 | 78192 | 91444 7 | 20:19.20 | 4:35.45 | 91445 | 112114 8 | 24:54.65 | 5:06.52 | 112115 | 135116 9 | 30:01.42 | 4:58.65 | 135117 | 157531

Характеристики диапазона извлечения и сообщения об ошибках

Выбранный диапазон

Имя файла C:\1976 - Virgin Killer (3659-2-R).wav

Пиковый уровень 100.0 % Скорость извлечения 4.2 X Качество диапазона 99.9 % CRC теста C55CC6AE CRC копии C55CC6AE Копирование... OK

Ошибок не произошло

AccurateRip: сводка

Трек 1 : извлечено точно (доверие 3) [3D02D03A] (AR v1)Трек 2 : извлечено точно (доверие 3) [CFF1AA06] (AR v1)Трек 3 : извлечено точно (доверие 3) [B914B2A0] (AR v1)Трек 4 : извлечено точно (доверие 3) [5D6E2C38] (AR v1)Трек 5 : извлечено точно (доверие 3) [79C95C3A] (AR v1)Трек 6 : извлечено точно (доверие 3) [EFDB29C8] (AR v1)Трек 7 : извлечено точно (доверие 3) [E1CDEE3F] (AR v1)Трек 8 : извлечено точно (доверие 3) [4836008B] (AR v1)Трек 9 : извлечено точно (доверие 3) [9F026AFB] (AR v1)

Все треки извлечены точно

Конец отчёта


Трекер:  [ 06-Сен-2012 21:01 ]

  

Скачать .torrent

Размер .torrent файла 22 KB


Размер: 509 MB
Хэш (hash) релиза: a048f590092b827aa1e4e68797bde6094406d468

Еще никто не оставлял запись к записи скачать торрент Scorpions 2 CD - Fly To The Rainbow . Будь первым!

!Обратная связь