Скачать через торрент музыку VA - Blackmores Castle - A Tribute To Deep Purple & Rainbow - 2003, FLAC бесплатно без регистрации torrent

Если у вас наблюдаются проблемы со скриншотами, переходом по ссылками, скачиванием торрентов - проблемы в блокировщике рекламы AdBlock. #хорошегоДня!


Статистика раздачи
Размер:  568 MB   |    Зарегистрирован:  5 лет 1 месяц   |    .torrent скачан:  25 раз   |   
Раздают:  1  
   
Загрузка...
 
Автор Сообщение

Galfimbul

avatar Galfimbul


Various Artists - Blackmore's Castle - A Tribute To Deep Purple & Rainbow

Жанр: Hard Rock
Страна-производитель диска: Finland
Год издания: 2003
Издатель (лейбл): Lion Music
Номер по каталогу: LMC079
Аудиокодек: FLAC (*.flac)
Тип рипа: image+.cue
Битрейт аудио: lossless
Продолжительность: 1:12:39
Источник (релизер): Свой рип
Наличие сканов в содержимом раздачи: да
Треклист:
1. Mister Kite - Bloodsucker
2. Transcendence – Perfect Strangers
3. Arabesque – Stargazer
4. Lars Eric Mattsson – Self Portrait
5. Reign of Terror – Sixteenth Century Greensleeves
6. Iron Mask – Gates of Babylon
7. Headline – Battle Rages On
8. Condition Red – Black Night
9. Torben Enevolden – Space Truckin’
10. Eric Zimmermann – Man on the Silver Mountain
11. Winterlong – Highway Star
12. Jason Richardson – Lazy
13. Condition Red – Still I’m Sad
Exact Audio Copy V1.0 beta 3 from 29. August 2011

EAC extraction logfile from 13. January 2012, 17:48

Various Artists / Blackmore's Castle - A Tribute to Deep Purple & Rainbow

Used drive : ASUS DRW-1814BL Adapter: 0 ID: 0

Read mode : SecureUtilize accurate stream : YesDefeat audio cache : YesMake use of C2 pointers : No

Read offset correction : 6Overread into Lead-In and Lead-Out : NoFill up missing offset samples with silence : YesDelete leading and trailing silent blocks : NoNull samples used in CRC calculations : YesUsed interface : Native Win32 interface for Win NT & 2000

Used output format : Internal WAV RoutinesSample format : 44.100 Hz; 16 Bit; Stereo

TOC of the extracted CD

Track | Start | Length | Start sector | End sector --------------------------------------------------------- 1 | 0:00.00 | 4:45.70 | 0 | 21444 2 | 4:45.70 | 5:03.12 | 21445 | 44181 3 | 9:49.07 | 8:55.00 | 44182 | 84306 4 | 18:44.07 | 3:28.53 | 84307 | 99959 5 | 22:12.60 | 7:56.03 | 99960 | 135662 6 | 30:08.63 | 7:21.21 | 135663 | 168758 7 | 37:30.09 | 5:55.43 | 168759 | 195426 8 | 43:25.52 | 4:20.10 | 195427 | 214936 9 | 47:45.62 | 4:57.00 | 214937 | 237211 10 | 52:42.62 | 3:48.61 | 237212 | 254372 11 | 56:31.48 | 6:00.61 | 254373 | 281433 12 | 62:32.34 | 6:03.07 | 281434 | 308665 13 | 68:35.41 | 4:03.39 | 308666 | 326929

Range status and errors

Selected range

Filename D:\EAC\Various Artists - Blackmore's Castle - A Tribute to Deep Purple & Rainbow.wav

Peak level 98.8 % Extraction speed 8.4 X Range quality 100.0 % Copy CRC D6E65AFA Copy OK

No errors occurred

AccurateRip summary

Track 1 cannot be verified as accurate (confidence 3) [2432D7D7], AccurateRip returned [56F0E2B5] (AR v2)Track 2 cannot be verified as accurate (confidence 3) [A7C7E74A], AccurateRip returned [21740B2F] (AR v2)Track 3 cannot be verified as accurate (confidence 3) [837AF9D6], AccurateRip returned [485D9187] (AR v2)Track 4 cannot be verified as accurate (confidence 3) [68B41F7B], AccurateRip returned [80FDF0DD] (AR v2)Track 5 cannot be verified as accurate (confidence 3) [36293828], AccurateRip returned [8CFC5C70] (AR v2)Track 6 cannot be verified as accurate (confidence 3) [1052630D], AccurateRip returned [515B4C7E] (AR v2)Track 7 cannot be verified as accurate (confidence 3) [D5517333], AccurateRip returned [16487D0B] (AR v2)Track 8 cannot be verified as accurate (confidence 3) [E4FF8297], AccurateRip returned [F6A0C9AF] (AR v2)Track 9 cannot be verified as accurate (confidence 3) [58005E00], AccurateRip returned [960C79B8] (AR v2)Track 10 cannot be verified as accurate (confidence 3) [79610306], AccurateRip returned [C6D4A209] (AR v2)Track 11 cannot be verified as accurate (confidence 3) [37F967D3], AccurateRip returned [E22BC1D6] (AR v2)Track 12 cannot be verified as accurate (confidence 3) [782AAB95], AccurateRip returned [2AF17190] (AR v2)Track 13 cannot be verified as accurate (confidence 3) [5F1A8C17], AccurateRip returned [DCE1335C] (AR v2)

No tracks could be verified as accurateYou may have a different pressing from the one(s) in the database

End of status report


Трекер:  [ 06-Сен-2012 21:01 ]

  

Скачать .torrent

Размер .torrent файла 12 KB


Размер: 568 MB
Хэш (hash) релиза: fef56bdd97fbb4083de4613db049e9c1d230b6fb

Еще никто не оставлял запись к записи скачать торрент VA - Blackmores Castle - A Tribute To Deep Purple & Rainbow - 2003, FLAC . Будь первым!

!Обратная связь