Скачать через торрент музыку Alice Cooper - Dirty Diamonds бесплатно без регистрации torrent

Если у вас наблюдаются проблемы со скриншотами, переходом по ссылками, скачиванием торрентов - проблемы в блокировщике рекламы AdBlock. #хорошегоДня!


Статистика раздачи
Размер:  337 MB   |    Зарегистрирован:  5 лет 2 месяца   |    .torrent скачан:  39 раз   |   
Раздают:  1  
   
Загрузка...
 
Автор Сообщение

Galfimbul

avatar Galfimbul


Alice Cooper / Dirty Diamonds (digibook)

Жанр: Hard Rock, Shock Rock
Страна-производитель диска: Россия
Год издания: 2005
Издатель (лейбл): CD-Maximum
Номер по каталогу: CDM 0805-2362/d
Страна: USA
Аудиокодек: FLAC (*.flac)
Тип рипа: image+.cue
Битрейт аудио: lossless
Продолжительность: 50:46
Источник (релизер): Собственный диск
Наличие сканов в содержимом раздачи: нет
Треклист:
01. Woman of Mass Distraction
02. Perfect
03. You Make Me Wanna
04. Dirty Diamonds
05. The Saga of Jesse Jane
06. Sunset Babies (All Got Rabies)
07. Pretty Ballerina
08. Run Down the Devil
09. Steal That Car
10. Six Hours
11. Your Own Worst Enemy
12. Zombie Dance

Bonus tracks:

13. Stand
14. The Sharpest Pain

Exact Audio Copy V1.0 beta 3 from 29. August 2011

Отчёт EAC об извлечении, выполненном 4. сентября 2012, 20:40

Alice Cooper / Dirty Diamonds

Дисковод: SlimtypeDVD A DS8A3S Adapter: 0 ID: 1

Режим чтения : ДостоверностьИспользование точного потока : ДаОтключение кэша аудио : ДаИспользование указателей C2 : Нет

Коррекция смещения при чтении : 6Способность читать области Lead-in и Lead-out : НетЗаполнение пропущенных сэмплов тишиной : ДаУдаление блоков с тишиной в начале и конце : НетПри вычислениях CRC использовались нулевые сэмплы : ДаИнтерфейс : Установленный внешний ASPI-интерфейс

Выходной формат : Пользовательский кодировщикВыбранный битрейт : 768 kBit/sКачество : ВысокийДобавление ID3-тега : НетУтилита сжатия : C:\Program Files (x86)\Exact Audio Copy\FLAC\FLAC.EXEДополнительные параметры : -V -8 -T "Date=%year%" -T "Genre=%genre%" %source%

TOC извлечённого CD

Трек | Старт | Длительность | Начальный сектор | Конечный сектор --------------------------------------------------------------------- 1 | 0:00.00 | 3:59.13 | 0 | 17937 2 | 3:59.13 | 3:30.17 | 17938 | 33704 3 | 7:29.30 | 3:31.02 | 33705 | 49531 4 | 11:00.32 | 4:02.51 | 49532 | 67732 5 | 15:03.08 | 4:15.67 | 67733 | 86924 6 | 19:19.00 | 3:28.17 | 86925 | 102541 7 | 22:47.17 | 3:01.61 | 102542 | 116177 8 | 25:49.03 | 3:29.17 | 116178 | 131869 9 | 29:18.20 | 3:16.39 | 131870 | 146608 10 | 32:34.59 | 3:24.39 | 146609 | 161947 11 | 35:59.23 | 2:15.19 | 161948 | 172091 12 | 38:14.42 | 4:27.27 | 172092 | 192143 13 | 42:41.69 | 4:04.60 | 192144 | 210503 14 | 46:46.54 | 3:59.40 | 210504 | 228468

Характеристики диапазона извлечения и сообщения об ошибках

Выбранный диапазон

Имя файла D:\Slaughterhouse\Alice Cooper - Dirty Diamonds (digibook)\Alice Cooper - Dirty Diamonds.wav

Пиковый уровень 99.4 % Скорость извлечения 4.3 X Качество диапазона 100.0 % CRC теста F6962037 CRC копии F6962037 Копирование... OK

Ошибок не произошло

AccurateRip: сводка

Трек 1 : извлечено точно (доверие 3) [768C2785] (AR v1)Трек 2 : извлечено точно (доверие 3) [229EBEB6] (AR v1)Трек 3 : извлечено точно (доверие 3) [B6997518] (AR v1)Трек 4 : извлечено точно (доверие 3) [4765BFC3] (AR v1)Трек 5 : извлечено точно (доверие 3) [3F631B3F] (AR v1)Трек 6 : извлечено точно (доверие 3) [FB7BF7E0] (AR v1)Трек 7 : извлечено точно (доверие 3) [DEA77B57] (AR v1)Трек 8 : извлечено точно (доверие 3) [10927D62] (AR v1)Трек 9 : извлечено точно (доверие 3) [B3FF39CD] (AR v1)Трек 10 : извлечено точно (доверие 3) [96908AA5] (AR v1)Трек 11 : извлечено точно (доверие 3) [FCF45151] (AR v1)Трек 12 : извлечено точно (доверие 3) [6C91CE2D] (AR v1)Трек 13 : извлечено точно (доверие 3) [79524CF3] (AR v1)Трек 14 : извлечено точно (доверие 3) [F4BFDF13] (AR v1)

Все треки извлечены точно

Конец отчёта

==== Контрольная сумма отчёта 05BBF8B75241842DC82A04FB73BB20EB8F6801330EE942DB3E2AAD11752D3356 ====
Элис Купер, в представлении не нуждается.
Digibook-издание с редкой песней The Sharpest Pain, выходившее только в России и Австралии.
Alice Cooper - Vocals, Harmonica
Ryan Roxie - Guitar
Damon Johnson - Guitar
Chuck Garric - Bass
Tommy Clufetos - Drums


Трекер:  [ 06-Сен-2012 21:01 ]

  

Скачать .torrent

Размер .torrent файла 14 KB


Размер: 337 MB
Хэш (hash) релиза: e47ad94e7a91b672cf7293e680c9b33c29072a15

Торренты, похожие на Alice Cooper - Dirty Diamonds скачать торрент

Форум Название Автор Размер S L Добавлен
Rосk | Mеtаl | Аltеrnаtivе, Рunk, Indереndеnt (mр3) ·· (Hard Rock, Shock Rock) Alice Cooper - Dirty Diamonds (digibook) - 2005, MP3, 320 kbps Galfimbul 121926097116 MB 0 0 1320780081

22:21

8-Ноя-11

Еще никто не оставлял запись к записи скачать торрент Alice Cooper - Dirty Diamonds . Будь первым!

!Обратная связь