Скачать через торрент музыку The Wolfgangs - Shout With The Devil - 2011, FLAC бесплатно без регистрации torrent

Если у вас наблюдаются проблемы со скриншотами, переходом по ссылками, скачиванием торрентов - проблемы в блокировщике рекламы AdBlock. #хорошегоДня!


Статистика раздачи
Размер:  262 MB   |    Зарегистрирован:  5 лет 2 месяца   |    .torrent скачан:  12 раз   |   
Раздают:  1  
   
Загрузка...
 
Автор Сообщение

Galfimbul

avatar Galfimbul


The Wolfgangs - Shout With The Devil
Жанр: Psychobilly / Rockabilly
Год издания диска: 2011
Издатель (лейбл): Longneck Records
Страна: France
Аудио кодек: FLAC (*.flac)
Тип рипа: image+.cue
Битрейт аудио: lossless
Продолжительность: 34:31
Источник (релизер): my CD
Наличие сканов в содержимом раздачи: да

Доп. информация:
The Wolfgangs play:
Old school Psychobilly with modern first class female vocals.
http://youtu.be/PHtJPrzUFEU



01.Only With You (2:36)
02.Fast Bullit (2:08)
03.Mystery (2:59)
04.Cannibal Family (3:30)
05.Devil Girl (2:55)
06.The Train (2:10)
07.Black Sleeves (2:47)
08.Break The Routine (3:02)
09.Full Moon (2:04)
10.Voodoo Dance (Bonus tracks from first EP) (2:33)
11.Fight Kill Life (3:05)
12.Death On the Radio (2:12)
13.Psychobilly (2:30)
Exact Audio Copy V1.0 beta 3 from 29. August 2011

EAC extraction logfile from 4. September 2012, 21:35

The Wolfgangs / Shout With The Devil

Used drive : Optiarc DVD RW AD-7283S Adapter: 1 ID: 0

Read mode : SecureUtilize accurate stream : YesDefeat audio cache : YesMake use of C2 pointers : No

Read offset correction : 48Overread into Lead-In and Lead-Out : NoFill up missing offset samples with silence : YesDelete leading and trailing silent blocks : NoNull samples used in CRC calculations : YesUsed interface : Installed external ASPI interface

Used output format : User Defined EncoderSelected bitrate : 128 kBit/sQuality : HighAdd ID3 tag : NoCommand line compressor : C:\Program Files (x86)\Exact Audio Copy\flac.exeAdditional command line options : -V -8 -T "Date=%year%" -T "Genre=%genre%" %source%

TOC of the extracted CD

Track | Start | Length | Start sector | End sector --------------------------------------------------------- 1 | 0:00.00 | 2:35.67 | 0 | 11691 2 | 2:35.67 | 2:08.29 | 11692 | 21320 3 | 4:44.21 | 2:58.61 | 21321 | 34731 4 | 7:43.07 | 3:29.58 | 34732 | 50464 5 | 11:12.65 | 2:55.11 | 50465 | 63600 6 | 14:08.01 | 2:09.73 | 63601 | 73348 7 | 16:17.74 | 2:46.69 | 73349 | 85867 8 | 19:04.68 | 3:01.56 | 85868 | 99498 9 | 22:06.49 | 2:04.08 | 99499 | 108806 10 | 24:10.57 | 2:32.72 | 108807 | 120278 11 | 26:43.54 | 3:05.15 | 120279 | 134168 12 | 29:48.69 | 2:12.05 | 134169 | 144073 13 | 32:00.74 | 2:30.01 | 144074 | 155324

Range status and errors

Selected range

Filename D:\Lossless\The Wolfgangs - Shout With The Devil\The Wolfgangs - Shout With The Devil.wav

Peak level 100.0 % Extraction speed 3.6 X Range quality 99.9 % Test CRC 31CDDE57 Copy CRC 31CDDE57 Copy OK

No errors occurred

AccurateRip summary

Track 1 accurately ripped (confidence 1) [A6B13D6B] (AR v2)Track 2 accurately ripped (confidence 1) [77744663] (AR v2)Track 3 accurately ripped (confidence 1) [E10940C3] (AR v2)Track 4 accurately ripped (confidence 1) [FD634E92] (AR v2)Track 5 accurately ripped (confidence 1) [D8C44386] (AR v2)Track 6 accurately ripped (confidence 1) [D17B0FB8] (AR v2)Track 7 accurately ripped (confidence 1) [9EEAD6E3] (AR v2)Track 8 accurately ripped (confidence 1) [58DDF671] (AR v2)Track 9 accurately ripped (confidence 1) [8B9A9A0A] (AR v2)Track 10 accurately ripped (confidence 1) [848C3E5D] (AR v2)Track 11 accurately ripped (confidence 1) [5D79E50B] (AR v2)Track 12 accurately ripped (confidence 1) [7467B5A9] (AR v2)Track 13 accurately ripped (confidence 1) [DA989C9B] (AR v2)

All tracks accurately ripped

End of status report

==== Log checksum 7A9045BCD4A20A66DC64D32B5F5FBE0F68534190A548BF9BB38BED628FAFC0ED ====
Cha von Wolfgang - Lead vocalsLothar von Wolfgang - GuitarDean Blondin - Double Bass / backing vocalsJim Bullit - Drums


Трекер:  [ 06-Сен-2012 21:01 ]

  

Скачать .torrent

Размер .torrent файла 11 KB


Размер: 262 MB
Хэш (hash) релиза: 2c7cd558a031cb72f3f0966c82f52e5b8c4831ab

Еще никто не оставлял запись к записи скачать торрент The Wolfgangs - Shout With The Devil - 2011, FLAC . Будь первым!

!Обратная связь