Скачать через торрент музыку Oho - Okinawa - 1974 бесплатно без регистрации torrent

Если у вас наблюдаются проблемы со скриншотами, переходом по ссылками, скачиванием торрентов - проблемы в блокировщике рекламы AdBlock. #хорошегоДня!


Статистика раздачи
Размер:  523 MB   |    Зарегистрирован:  5 лет 1 месяц   |    .torrent скачан:  10 раз   |   
Раздают:  1  
   
Загрузка...
 
Автор Сообщение

Galfimbul

avatar Galfimbul


Oho / Okinawa - 1974 (Reissue 2010)

Жанр: Prog Rock/Psychedelic Rock
Страна-производитель диска: US
Год издания: 2010
Издатель (лейбл): Rockadrome
Номер по каталогу: ROCK028-V-2
Страна: US
Аудиокодек: FLAC (*.flac)
Тип рипа: image+.cue
Битрейт аудио: lossless
Продолжительность: 01:13:50
Источник (релизер): lossless-galaxy.ru
Наличие сканов в содержимом раздачи: да
01 Laughing 0:22
02 Opposites 0:27
03 Duva 3:03
04 Hyphenate Ice-less 3:53
05 Horse Remorse 3:32
06 Parts & Ponds 2:09
07 Ain't Life Dumb 2:25
08 A Frog for You 2:32
09 Hogshead 5:51
10 Manic Detective 2:05
11 Brown Algae Is Attractive 2:19
12 Plymouth Ascendants 2:48
13 The Salient Sickle Sucker 5:22
14 Hairy Bag 1:01
15 Fast Bananas 2:54
16 The Unfortunate Frankfurter Vendor 1:11
17 Last Dance 0:59
18 Fill the Sheet 1:51
19 The Still Nite 2:04
20 Dance of the Ivy Dog 1:52
21 Gotta Write a Poem 1:18
22 The Insipid City of York 2:59
23 Board Organ (edit) 1:31
24 The Continuing Story of Cragwheel the Corpse Pt.II 6:19
25 Lemon Flowers 2:13
26 Corrective Shoes 0:54
27 Pale Hippo 1:49
28 Sorry 3:18
29 Chess Is Boring 0:36
30 The Plague 4:12
Exact Audio Copy V0.99 prebeta 5 from 4. May 2009

EAC extraction logfile from 14. January 2011, 14:03

Oho / Okinawa

Used drive : PIONEER DVD-RW DVR-215D Adapter: 4 ID: 0

Read mode : SecureUtilize accurate stream : YesDefeat audio cache : YesMake use of C2 pointers : No

Read offset correction : 48Overread into Lead-In and Lead-Out : NoFill up missing offset samples with silence : YesDelete leading and trailing silent blocks : NoNull samples used in CRC calculations : YesUsed interface : Native Win32 interface for Win NT & 2000

Used output format : User Defined EncoderSelected bitrate : 1024 kBit/sQuality : HighAdd ID3 tag : NoCommand line compressor : C:\Program Files\Exact Audio Copy\Flac\flac.exeAdditional command line options : -8 -V %s

TOC of the extracted CD

Track | Start | Length | Start sector | End sector --------------------------------------------------------- 1 | 0:00.00 | 0:22.09 | 0 | 1658 2 | 0:22.09 | 0:27.24 | 1659 | 3707 3 | 0:49.33 | 3:03.19 | 3708 | 17451 4 | 3:52.52 | 3:53.06 | 17452 | 34932 5 | 7:45.58 | 3:31.44 | 34933 | 50801 6 | 11:17.27 | 2:09.11 | 50802 | 60487 7 | 13:26.38 | 2:25.19 | 60488 | 71381 8 | 15:51.57 | 2:31.63 | 71382 | 82769 9 | 18:23.45 | 5:51.04 | 82770 | 109098 10 | 24:14.49 | 2:05.24 | 109099 | 118497 11 | 26:19.73 | 2:19.20 | 118498 | 128942 12 | 28:39.18 | 2:48.07 | 128943 | 141549 13 | 31:27.25 | 5:21.57 | 141550 | 165681 14 | 36:49.07 | 1:00.62 | 165682 | 170243 15 | 37:49.69 | 2:53.64 | 170244 | 183282 16 | 40:43.58 | 1:10.49 | 183283 | 188581 17 | 41:54.32 | 0:59.28 | 188582 | 193034 18 | 42:53.60 | 1:50.71 | 193035 | 201355 19 | 44:44.56 | 2:04.31 | 201356 | 210686 20 | 46:49.12 | 1:52.10 | 210687 | 219096 21 | 48:41.22 | 1:17.72 | 219097 | 224943 22 | 49:59.19 | 2:58.69 | 224944 | 238362 23 | 52:58.13 | 1:30.72 | 238363 | 245184 24 | 54:29.10 | 6:18.66 | 245185 | 273600 25 | 60:48.01 | 2:13.14 | 273601 | 283589 26 | 63:01.15 | 0:54.00 | 283590 | 287639 27 | 63:55.15 | 1:49.32 | 287640 | 295846 28 | 65:44.47 | 3:18.33 | 295847 | 310729 29 | 69:03.05 | 0:36.04 | 310730 | 313433 30 | 69:39.09 | 4:11.47 | 313434 | 332305

Range status and errors

Selected range

Filename C:\Documents and Settings\валера\Рабочий стол\Oho - Okinawa (1974).wav

Peak level 100.0 % Range quality 99.9 % Test CRC 9F008E0F Copy CRC 9F008E0F Copy OK

No errors occurred

AccurateRip summary

Track 1 not present in databaseTrack 2 not present in databaseTrack 3 not present in databaseTrack 4 not present in databaseTrack 5 not present in databaseTrack 6 not present in databaseTrack 7 not present in databaseTrack 8 not present in databaseTrack 9 not present in databaseTrack 10 not present in databaseTrack 11 not present in databaseTrack 12 not present in databaseTrack 13 not present in databaseTrack 14 not present in databaseTrack 15 not present in databaseTrack 16 not present in databaseTrack 17 not present in databaseTrack 18 not present in databaseTrack 19 not present in databaseTrack 20 not present in databaseTrack 21 not present in databaseTrack 22 not present in databaseTrack 23 not present in databaseTrack 24 not present in databaseTrack 25 not present in databaseTrack 26 not present in databaseTrack 27 not present in databaseTrack 28 not present in databaseTrack 29 not present in databaseTrack 30 not present in database

None of the tracks are present in the AccurateRip database

End of status report
AUDIOCHECKER v2.0 beta (build 457) - by Dester - <a href="mailto:opdester@freemail.hu" class="postLink">opdester@freemail.hu</a>~~~~~~~~~~~~~~~~~~~~~~~~~~~~~~~~~~-=== НЕ РЕДАКТИРУЙТЕ ЭТОТ ФАЙЛ! ===-

Путь: ...\Oho - Okinawa (1974)

1 -=- Oho - Okinawa (1974).flac -=- CDDA (100%)

56484276
Группа из Балтиморы ( название это инициалы участников O'Connor / Heck / O'Sullivan ) , основанная , году примерно в 73 , из обломков местного коллектива под именем Little Hans band , в 1974 году на свои средства они издают альбом Okinawa , с эксперементальным прог-роком под явным влиянием Френка Заппы , а так же британцев первого эшелона , таких как King Crimson и Yes. Лирика альбома насыщена чёрным юмором.
После выпуска второго альбома (Vitamin Oho) группа прекращает своё существование.
Jay Graboski и Mark O'Connor занялись новой волной.
Oho периодически собирались в течении 80х .
Jeffrey Graboski – drums
Steven Heck – bass; vocals
Mark O'Connor – keyboards; vocals
Joe O'Sullivan – guitars; vocals
Jay Graboski – guitars; vocals
With:
Boris McFinnie – horns
Gene – saxophone
Nuna – bass
Larry – percussion
Greg Coulson – vocals
&:
Cedarcroft Girls Chorus – backing vocals


Трекер:  [ 04-Сен-2012 16:15 ]

  

Скачать .torrent

Размер .torrent файла 11 KB


Размер: 523 MB
Хэш (hash) релиза: df78de1e4ec59074254e8ea0ec313413c697c3e8

Еще никто не оставлял запись к записи скачать торрент Oho - Okinawa - 1974 . Будь первым!

!Обратная связь