Скачать через торрент музыку Clouds - Up Above Our Heads: Clouds 1966-71 бесплатно без регистрации torrent

Если у вас наблюдаются проблемы со скриншотами, переходом по ссылками, скачиванием торрентов - проблемы в блокировщике рекламы AdBlock. #хорошегоДня!


Статистика раздачи
Размер:  771 MB   |    Зарегистрирован:  4 года 11 месяцев   |    .torrent скачан:  12 раз   |   
Раздают:  2  
   
Загрузка...
 
Автор Сообщение

Galfimbul

avatar Galfimbul


Clouds / Up Above Our Heads: Clouds 1966-71 (Remastered 2010)

Жанр: Prog Related
Страна-производитель диска: UK
Год издания: 2010
Издатель (лейбл): BGO Records
Номер по каталогу: BGOCD966
Страна: Scotland
Аудиокодек: FLAC (*.flac)
Тип рипа: tracks+.cue
Битрейт аудио: lossless
Продолжительность: 00:59:40+00:72:25
Источник (релизер): What.cd (Yalinc)
Наличие сканов в содержимом раздачи: да
Треклист:
1. Scrapbook Intro (1:08)
2. The Carpenter (3:29)
3. The Colours Have Run (3:00)
4. I'll Go Girl (3:21)
5. Grandad (2:10)
6. Ladies And Gentlemen (3:09)
7. Humdrum (1:07)
8. Union Jack (1:25)
9. Old Man (3:25)
10. Waiter There's Something In My Soup (7:01)
11. Scrapbook (2:51)
Up Above Our Heads (1969-70)
12. Imagine Me (3.:28)
13. Sing, Sing, Sing (13:44)
14. Take Me To Your Leader (3:00)
15. Big Noise From Winnetka (4:06)
16. In The Mine (4:02)
1. Watercolour Days (5:28)
2. Cold Sweat (3:36)
3. Lighthouse (5:03)
4. Long Time (4:38)
5. Mind Of A Child (2:51)
6. I Know Better Than You (4:53)
7. Leavin' (3:25)
8. Get Off My Farm (3:27)
9. I Am The Melody (2:44)
Bonus Tracks (1966-71)
10. Make No Bones About It (2:48)
11. Heritage (4:18)
12. Why Is There No Magic (2:46)
13. The World Is A Madhouse (4:00)
14. Shadows (2:42)
15. Once Upon A Time (2:54)
16. A Day Of Rain (4:16)
17. America (8:09)
18. Clockwork Soldier (5:09)
Exact Audio Copy V1.0 beta 1 from 15. November 2010

EAC extraction logfile from 14. March 2012, 14:55

Clouds / Up Above Our Heads [cd1]

Used drive : TSSTcorpCDDVDW TS-L633C Adapter: 1 ID: 0

Read mode : Secure
Utilize accurate stream : Yes
Defeat audio cache : Yes
Make use of C2 pointers : No

Read offset correction : 6
Overread into Lead-In and Lead-Out : No
Fill up missing offset samples with silence : Yes
Delete leading and trailing silent blocks : No
Null samples used in CRC calculations : Yes
Used interface : Native Win32 interface for Win NT & 2000
Gap handling : Appended to previous track

Used output format : User Defined Encoder
Selected bitrate : 768 kBit/s
Quality : High
Add ID3 tag : No
Command line compressor : C:\Program Files\Exact Audio Copy\FLAC\FLAC.EXE
Additional command line options : -6 -V -T "ARTIST=%a" -T "TITLE=%t" -T "ALBUM=%g" -T "DATE=%y" -T "TRACKNUMBER=%n" -T "GENRE=%m" -T "COMMENT=%e" %j--picture="%i"%j %s -o %d

TOC of the extracted CD

Track | Start | Length | Start sector | End sector
---------------------------------------------------------
1 | 0:00.00 | 1:09.11 | 0 | 5185
2 | 1:09.11 | 3:28.35 | 5186 | 20820
3 | 4:37.46 | 2:58.49 | 20821 | 34219
4 | 7:36.20 | 3:20.15 | 34220 | 49234
5 | 10:56.35 | 2:09.39 | 49235 | 58948
6 | 13:05.74 | 3:07.08 | 58949 | 72981
7 | 16:13.07 | 1:06.55 | 72982 | 77986
8 | 17:19.62 | 1:24.21 | 77987 | 84307
9 | 18:44.08 | 3:25.02 | 84308 | 99684
10 | 22:09.10 | 7:00.59 | 99685 | 131243
11 | 29:09.69 | 2:48.40 | 131244 | 143883
12 | 31:58.34 | 3:20.43 | 143884 | 158926
13 | 35:19.02 | 13:45.70 | 158927 | 220871
14 | 49:04.72 | 2:52.11 | 220872 | 233782
15 | 51:57.08 | 3:54.14 | 233783 | 251346
16 | 55:51.22 | 3:55.61 | 251347 | 269032

Track 1

Filename H:\music\yalinc\Clouds - Up Above Our Heads [Clouds 1966-71] (2010)\cd1\01 - Clouds - Scrapbook Intro.wav

Pre-gap length 0:00:02.00

Peak level 55.5 %
Extraction speed 1.2 X
Track quality 100.0 %
Test CRC C724E480
Copy CRC C724E480
Track not present in AccurateRip database
Copy OK

Track 2

Filename H:\music\yalinc\Clouds - Up Above Our Heads [Clouds 1966-71] (2010)\cd1\02 - Clouds - The Carpenter.wav

Pre-gap length 0:00:02.00

Peak level 95.9 %
Extraction speed 1.5 X
Track quality 100.0 %
Test CRC 55A29A0F
Copy CRC 55A29A0F
Track not present in AccurateRip database
Copy OK

Track 3

Filename H:\music\yalinc\Clouds - Up Above Our Heads [Clouds 1966-71] (2010)\cd1\03 - Clouds - The Colours Have Run.wav

Pre-gap length 0:00:02.00

Peak level 82.9 %
Extraction speed 1.5 X
Track quality 99.9 %
Test CRC 4D183AF2
Copy CRC 4D183AF2
Track not present in AccurateRip database
Copy OK

Track 4

Filename H:\music\yalinc\Clouds - Up Above Our Heads [Clouds 1966-71] (2010)\cd1\04 - Clouds - I'll Go Girl.wav

Pre-gap length 0:00:02.00

Peak level 94.0 %
Extraction speed 1.9 X
Track quality 100.0 %
Test CRC 5486B3D1
Copy CRC 5486B3D1
Track not present in AccurateRip database
Copy OK

Track 5

Filename H:\music\yalinc\Clouds - Up Above Our Heads [Clouds 1966-71] (2010)\cd1\05 - Clouds - Grandad.wav

Pre-gap length 0:00:02.00

Peak level 91.3 %
Extraction speed 1.5 X
Track quality 99.9 %
Test CRC 8FCE0D37
Copy CRC 8FCE0D37
Track not present in AccurateRip database
Copy OK

Track 6

Filename H:\music\yalinc\Clouds - Up Above Our Heads [Clouds 1966-71] (2010)\cd1\06 - Clouds - Ladies And Gentlemen.wav

Pre-gap length 0:00:02.00

Peak level 93.5 %
Extraction speed 2.1 X
Track quality 100.0 %
Test CRC CC3B08F5
Copy CRC CC3B08F5
Track not present in AccurateRip database
Copy OK

Track 7

Filename H:\music\yalinc\Clouds - Up Above Our Heads [Clouds 1966-71] (2010)\cd1\07 - Clouds - Humdrum.wav

Pre-gap length 0:00:02.00

Peak level 95.0 %
Extraction speed 1.2 X
Track quality 99.8 %
Test CRC 20331216
Copy CRC 20331216
Track not present in AccurateRip database
Copy OK

Track 8

Filename H:\music\yalinc\Clouds - Up Above Our Heads [Clouds 1966-71] (2010)\cd1\08 - Clouds - Union Jack.wav

Pre-gap length 0:00:02.00

Peak level 91.8 %
Extraction speed 1.7 X
Track quality 100.0 %
Test CRC 3510ED0C
Copy CRC 3510ED0C
Track not present in AccurateRip database
Copy OK

Track 9

Filename H:\music\yalinc\Clouds - Up Above Our Heads [Clouds 1966-71] (2010)\cd1\09 - Clouds - Old Man.wav

Pre-gap length 0:00:02.00

Peak level 94.2 %
Extraction speed 2.2 X
Track quality 100.0 %
Test CRC FE032CCA
Copy CRC FE032CCA
Track not present in AccurateRip database
Copy OK

Track 10

Filename H:\music\yalinc\Clouds - Up Above Our Heads [Clouds 1966-71] (2010)\cd1\10 - Clouds - Waiter There's Something In My Soup.wav

Pre-gap length 0:00:02.00

Peak level 100.0 %
Extraction speed 2.6 X
Track quality 100.0 %
Test CRC D23CCC28
Copy CRC D23CCC28
Track not present in AccurateRip database
Copy OK

Track 11

Filename H:\music\yalinc\Clouds - Up Above Our Heads [Clouds 1966-71] (2010)\cd1\11 - Clouds - Scrapbook.wav

Pre-gap length 0:00:02.00

Peak level 93.3 %
Extraction speed 2.4 X
Track quality 100.0 %
Test CRC 55CE39A6
Copy CRC 55CE39A6
Track not present in AccurateRip database
Copy OK

Track 12

Filename H:\music\yalinc\Clouds - Up Above Our Heads [Clouds 1966-71] (2010)\cd1\12 - Clouds - Imagine Me.wav

Pre-gap length 0:00:02.00

Peak level 98.8 %
Extraction speed 2.2 X
Track quality 99.9 %
Test CRC 3FFB0FFE
Copy CRC 3FFB0FFE
Track not present in AccurateRip database
Copy OK

Track 13

Filename H:\music\yalinc\Clouds - Up Above Our Heads [Clouds 1966-71] (2010)\cd1\13 - Clouds - Sing, Sing, Sing.wav

Pre-gap length 0:00:02.00

Peak level 100.0 %
Extraction speed 3.1 X
Track quality 100.0 %
Test CRC 88AE4334
Copy CRC 88AE4334
Track not present in AccurateRip database
Copy OK

Track 14

Filename H:\music\yalinc\Clouds - Up Above Our Heads [Clouds 1966-71] (2010)\cd1\14 - Clouds - Take Me To Your Leader.wav

Pre-gap length 0:00:02.00

Peak level 100.0 %
Extraction speed 2.9 X
Track quality 100.0 %
Test CRC 436659AF
Copy CRC 436659AF
Track not present in AccurateRip database
Copy OK

Track 15

Filename H:\music\yalinc\Clouds - Up Above Our Heads [Clouds 1966-71] (2010)\cd1\15 - Clouds - Big Noise From Winnetka.wav

Pre-gap length 0:00:02.00

Peak level 100.0 %
Extraction speed 3.1 X
Track quality 100.0 %
Test CRC E2BABB98
Copy CRC E2BABB98
Track not present in AccurateRip database
Copy OK

Track 16

Filename H:\music\yalinc\Clouds - Up Above Our Heads [Clouds 1966-71] (2010)\cd1\16 - Clouds - In The Mine.wav

Pre-gap length 0:00:02.00

Peak level 100.0 %
Extraction speed 3.1 X
Track quality 100.0 %
Test CRC 3962CFAA
Copy CRC 3962CFAA
Track not present in AccurateRip database
Copy OK

None of the tracks are present in the AccurateRip database

No errors occurred

End of status report

==== Log checksum 03AF1754E6056D1E1760BE583237854D70EDA2089FC6FE9426F4CA45D3E3A88E ====
Exact Audio Copy V1.0 beta 1 from 15. November 2010

EAC extraction logfile from 14. March 2012, 16:16

Clouds / Up Above Our Heads [cd2]

Used drive : TSSTcorpCDDVDW TS-L633C Adapter: 1 ID: 0

Read mode : Secure
Utilize accurate stream : Yes
Defeat audio cache : Yes
Make use of C2 pointers : No

Read offset correction : 6
Overread into Lead-In and Lead-Out : No
Fill up missing offset samples with silence : Yes
Delete leading and trailing silent blocks : No
Null samples used in CRC calculations : Yes
Used interface : Native Win32 interface for Win NT & 2000
Gap handling : Appended to previous track

Used output format : User Defined Encoder
Selected bitrate : 768 kBit/s
Quality : High
Add ID3 tag : No
Command line compressor : C:\Program Files\Exact Audio Copy\FLAC\FLAC.EXE
Additional command line options : -6 -V -T "ARTIST=%a" -T "TITLE=%t" -T "ALBUM=%g" -T "DATE=%y" -T "TRACKNUMBER=%n" -T "GENRE=%m" -T "COMMENT=%e" %j--picture="%i"%j %s -o %d

TOC of the extracted CD

Track | Start | Length | Start sector | End sector
---------------------------------------------------------
1 | 0:00.00 | 5:31.33 | 0 | 24857
2 | 5:31.33 | 3:38.65 | 24858 | 41272
3 | 9:10.23 | 5:05.46 | 41273 | 64193
4 | 14:15.69 | 4:37.22 | 64194 | 84990
5 | 18:53.16 | 2:53.69 | 84991 | 98034
6 | 21:47.10 | 4:55.72 | 98035 | 120231
7 | 26:43.07 | 3:25.16 | 120232 | 135622
8 | 30:08.23 | 3:28.56 | 135623 | 151278
9 | 33:37.04 | 2:41.56 | 151279 | 163409
10 | 36:18.60 | 2:37.08 | 163410 | 175192
11 | 38:55.68 | 4:18.40 | 175193 | 194582
12 | 43:14.33 | 2:43.17 | 194583 | 206824
13 | 45:57.50 | 4:00.38 | 206825 | 224862
14 | 49:58.13 | 2:41.63 | 224863 | 237000
15 | 52:40.01 | 2:55.09 | 237001 | 250134
16 | 55:35.10 | 3:42.51 | 250135 | 266835
17 | 59:17.61 | 8:10.27 | 266836 | 303612
18 | 67:28.13 | 5:06.51 | 303613 | 326613

Track 1

Filename H:\music\yalinc\Clouds - Up Above Our Heads [Clouds 1966-71] (2010)\cd2\01 - Clouds - Watercolour Days.wav

Pre-gap length 0:00:02.00

Peak level 95.1 %
Extraction speed 1.8 X
Track quality 100.0 %
Test CRC C970C775
Copy CRC C970C775
Track not present in AccurateRip database
Copy OK

Track 2

Filename H:\music\yalinc\Clouds - Up Above Our Heads [Clouds 1966-71] (2010)\cd2\02 - Clouds - Cold Sweat.wav

Pre-gap length 0:00:02.00

Peak level 96.3 %
Extraction speed 1.9 X
Track quality 100.0 %
Test CRC E74EAFE3
Copy CRC E74EAFE3
Track not present in AccurateRip database
Copy OK

Track 3

Filename H:\music\yalinc\Clouds - Up Above Our Heads [Clouds 1966-71] (2010)\cd2\03 - Clouds - Lighthouse.wav

Pre-gap length 0:00:02.00

Peak level 95.0 %
Extraction speed 2.1 X
Track quality 100.0 %
Test CRC 2021E4D9
Copy CRC 2021E4D9
Track not present in AccurateRip database
Copy OK

Track 4

Filename H:\music\yalinc\Clouds - Up Above Our Heads [Clouds 1966-71] (2010)\cd2\04 - Clouds - Long Time.wav

Pre-gap length 0:00:02.00

Peak level 93.7 %
Extraction speed 2.0 X
Track quality 99.9 %
Test CRC C3005145
Copy CRC C3005145
Track not present in AccurateRip database
Copy OK

Track 5

Filename H:\music\yalinc\Clouds - Up Above Our Heads [Clouds 1966-71] (2010)\cd2\05 - Clouds - Mind Of A Child.wav

Pre-gap length 0:00:02.00

Peak level 94.9 %
Extraction speed 2.2 X
Track quality 100.0 %
Test CRC 1031F0FB
Copy CRC 1031F0FB
Track not present in AccurateRip database
Copy OK

Track 6

Filename H:\music\yalinc\Clouds - Up Above Our Heads [Clouds 1966-71] (2010)\cd2\06 - Clouds - I Know Better Than You.wav

Pre-gap length 0:00:02.00

Peak level 93.4 %
Extraction speed 2.5 X
Track quality 100.0 %
Test CRC 119F1A5C
Copy CRC 119F1A5C
Track not present in AccurateRip database
Copy OK

Track 7

Filename H:\music\yalinc\Clouds - Up Above Our Heads [Clouds 1966-71] (2010)\cd2\07 - Clouds - Leavin'.wav

Pre-gap length 0:00:02.00

Peak level 91.9 %
Extraction speed 2.1 X
Track quality 99.9 %
Test CRC 71282440
Copy CRC 71282440
Track not present in AccurateRip database
Copy OK

Track 8

Filename H:\music\yalinc\Clouds - Up Above Our Heads [Clouds 1966-71] (2010)\cd2\08 - Clouds - Get Off My Farm.wav

Pre-gap length 0:00:02.00

Peak level 93.3 %
Extraction speed 2.5 X
Track quality 100.0 %
Test CRC 2D3B14E7
Copy CRC 2D3B14E7
Track not present in AccurateRip database
Copy OK

Track 9

Filename H:\music\yalinc\Clouds - Up Above Our Heads [Clouds 1966-71] (2010)\cd2\09 - Clouds - I Am The Melody.wav

Pre-gap length 0:00:02.00

Peak level 95.3 %
Extraction speed 2.5 X
Track quality 100.0 %
Test CRC CC71CF45
Copy CRC CC71CF45
Track not present in AccurateRip database
Copy OK

Track 10

Filename H:\music\yalinc\Clouds - Up Above Our Heads [Clouds 1966-71] (2010)\cd2\10 - Clouds - Make No Bones About It.wav

Pre-gap length 0:00:02.00

Peak level 100.0 %
Extraction speed 2.5 X
Track quality 100.0 %
Test CRC 9114AFEE
Copy CRC 9114AFEE
Track not present in AccurateRip database
Copy OK

Track 11

Filename H:\music\yalinc\Clouds - Up Above Our Heads [Clouds 1966-71] (2010)\cd2\11 - Clouds - Heritage.wav

Pre-gap length 0:00:02.00

Peak level 89.1 %
Extraction speed 2.8 X
Track quality 100.0 %
Test CRC 178D1D6F
Copy CRC 178D1D6F
Track not present in AccurateRip database
Copy OK

Track 12

Filename H:\music\yalinc\Clouds - Up Above Our Heads [Clouds 1966-71] (2010)\cd2\12 - Clouds - Why Is There No Magic.wav

Pre-gap length 0:00:02.00

Peak level 95.3 %
Extraction speed 2.6 X
Track quality 100.0 %
Test CRC 0F6BF85C
Copy CRC 0F6BF85C
Track not present in AccurateRip database
Copy OK

Track 13

Filename H:\music\yalinc\Clouds - Up Above Our Heads [Clouds 1966-71] (2010)\cd2\13 - Clouds - The World Is A Madhouse.wav

Pre-gap length 0:00:02.00

Peak level 100.0 %
Extraction speed 2.9 X
Track quality 100.0 %
Test CRC 9AC54491
Copy CRC 9AC54491
Track not present in AccurateRip database
Copy OK

Track 14

Filename H:\music\yalinc\Clouds - Up Above Our Heads [Clouds 1966-71] (2010)\cd2\14 - Clouds - Shadows.wav

Pre-gap length 0:00:02.00

Peak level 100.0 %
Extraction speed 2.8 X
Track quality 100.0 %
Test CRC 7A745568
Copy CRC 7A745568
Track not present in AccurateRip database
Copy OK

Track 15

Filename H:\music\yalinc\Clouds - Up Above Our Heads [Clouds 1966-71] (2010)\cd2\15 - Clouds - Once Upon A Time.wav

Pre-gap length 0:00:02.00

Peak level 100.0 %
Extraction speed 2.8 X
Track quality 100.0 %
Test CRC 133EE797
Copy CRC 133EE797
Track not present in AccurateRip database
Copy OK

Track 16

Filename H:\music\yalinc\Clouds - Up Above Our Heads [Clouds 1966-71] (2010)\cd2\16 - Clouds - A Day Of Rain.wav

Pre-gap length 0:00:02.00

Peak level 92.2 %
Extraction speed 3.0 X
Track quality 100.0 %
Test CRC 160CF76A
Copy CRC 160CF76A
Track not present in AccurateRip database
Copy OK

Track 17

Filename H:\music\yalinc\Clouds - Up Above Our Heads [Clouds 1966-71] (2010)\cd2\17 - Clouds - America.wav

Pre-gap length 0:00:02.00

Peak level 100.0 %
Extraction speed 3.4 X
Track quality 100.0 %
Test CRC 954A7566
Copy CRC 954A7566
Track not present in AccurateRip database
Copy OK

Track 18

Filename H:\music\yalinc\Clouds - Up Above Our Heads [Clouds 1966-71] (2010)\cd2\18 - Clouds - Clockwork Soldier.wav

Pre-gap length 0:00:02.00

Peak level 100.0 %
Extraction speed 3.4 X
Track quality 100.0 %
Test CRC 8FBA6B0F
Copy CRC 8FBA6B0F
Track not present in AccurateRip database
Copy OK

None of the tracks are present in the AccurateRip database

No errors occurred

End of status report

==== Log checksum 599136852E4E8BF833558EBFD192647D29AE571B2699DC4FAE77C06BFC826AED ====
REM GENRE "Progressive Rock"
REM DATE 2010
REM DISCID D40E0310
REM COMMENT "ExactAudioCopy v1.0b1"
PERFORMER "Clouds"
TITLE "Up Above Our Heads [cd1]"
FILE "01 - Clouds - Scrapbook Intro.wav" WAVE
TRACK 01 AUDIO
TITLE "Scrapbook Intro"
PERFORMER "Clouds"
FLAGS DCP
INDEX 01 00:00:00
TRACK 02 AUDIO
TITLE "The Carpenter"
PERFORMER "Clouds"
FLAGS DCP
INDEX 00 01:07:11
FILE "02 - Clouds - The Carpenter.wav" WAVE
INDEX 01 00:00:00
TRACK 03 AUDIO
TITLE "The Colours Have Run"
PERFORMER "Clouds"
FLAGS DCP
INDEX 00 03:26:35
FILE "03 - Clouds - The Colours Have Run.wav" WAVE
INDEX 01 00:00:00
TRACK 04 AUDIO
TITLE "I'll Go Girl"
PERFORMER "Clouds"
FLAGS DCP
INDEX 00 02:56:49
FILE "04 - Clouds - I'll Go Girl.wav" WAVE
INDEX 01 00:00:00
TRACK 05 AUDIO
TITLE "Grandad"
PERFORMER "Clouds"
FLAGS DCP
INDEX 00 03:18:15
FILE "05 - Clouds - Grandad.wav" WAVE
INDEX 01 00:00:00
TRACK 06 AUDIO
TITLE "Ladies And Gentlemen"
PERFORMER "Clouds"
FLAGS DCP
INDEX 00 02:07:39
FILE "06 - Clouds - Ladies And Gentlemen.wav" WAVE
INDEX 01 00:00:00
TRACK 07 AUDIO
TITLE "Humdrum"
PERFORMER "Clouds"
FLAGS DCP
INDEX 00 03:05:08
FILE "07 - Clouds - Humdrum.wav" WAVE
INDEX 01 00:00:00
TRACK 08 AUDIO
TITLE "Union Jack"
PERFORMER "Clouds"
FLAGS DCP
INDEX 00 01:04:55
FILE "08 - Clouds - Union Jack.wav" WAVE
INDEX 01 00:00:00
TRACK 09 AUDIO
TITLE "Old Man"
PERFORMER "Clouds"
FLAGS DCP
INDEX 00 01:22:21
FILE "09 - Clouds - Old Man.wav" WAVE
INDEX 01 00:00:00
TRACK 10 AUDIO
TITLE "Waiter There's Something In My Soup"
PERFORMER "Clouds"
FLAGS DCP
INDEX 00 03:23:02
FILE "10 - Clouds - Waiter There's Something In My Soup.wav" WAVE
INDEX 01 00:00:00
TRACK 11 AUDIO
TITLE "Scrapbook"
PERFORMER "Clouds"
FLAGS DCP
INDEX 00 06:58:59
FILE "11 - Clouds - Scrapbook.wav" WAVE
INDEX 01 00:00:00
TRACK 12 AUDIO
TITLE "Imagine Me"
PERFORMER "Clouds"
FLAGS DCP
INDEX 00 02:46:40
FILE "12 - Clouds - Imagine Me.wav" WAVE
INDEX 01 00:00:00
TRACK 13 AUDIO
TITLE "Sing, Sing, Sing"
PERFORMER "Clouds"
FLAGS DCP
INDEX 00 03:18:43
FILE "13 - Clouds - Sing, Sing, Sing.wav" WAVE
INDEX 01 00:00:00
TRACK 14 AUDIO
TITLE "Take Me To Your Leader"
PERFORMER "Clouds"
FLAGS DCP
INDEX 00 13:43:70
FILE "14 - Clouds - Take Me To Your Leader.wav" WAVE
INDEX 01 00:00:00
TRACK 15 AUDIO
TITLE "Big Noise From Winnetka"
PERFORMER "Clouds"
FLAGS DCP
INDEX 00 02:50:11
FILE "15 - Clouds - Big Noise From Winnetka.wav" WAVE
INDEX 01 00:00:00
TRACK 16 AUDIO
TITLE "In The Mine"
PERFORMER "Clouds"
FLAGS DCP
INDEX 00 03:52:14
FILE "16 - Clouds - In The Mine.wav" WAVE
INDEX 01 00:00:00
REM GENRE "Progressive Rock"
REM DATE 2010
REM DISCID E9110212
REM COMMENT "ExactAudioCopy v1.0b1"
PERFORMER "Clouds"
TITLE "Up Above Our Heads [cd2]"
FILE "01 - Clouds - Watercolour Days.wav" WAVE
TRACK 01 AUDIO
TITLE "Watercolour Days"
PERFORMER "Clouds"
FLAGS DCP
INDEX 01 00:00:00
TRACK 02 AUDIO
TITLE " Cold Sweat"
PERFORMER "Clouds"
FLAGS DCP
INDEX 00 05:29:33
FILE "02 - Clouds - Cold Sweat.wav" WAVE
INDEX 01 00:00:00
TRACK 03 AUDIO
TITLE "Lighthouse"
PERFORMER "Clouds"
FLAGS DCP
INDEX 00 03:36:65
FILE "03 - Clouds - Lighthouse.wav" WAVE
INDEX 01 00:00:00
TRACK 04 AUDIO
TITLE "Long Time"
PERFORMER "Clouds"
FLAGS DCP
INDEX 00 05:03:46
FILE "04 - Clouds - Long Time.wav" WAVE
INDEX 01 00:00:00
TRACK 05 AUDIO
TITLE "Mind Of A Child"
PERFORMER "Clouds"
FLAGS DCP
INDEX 00 04:35:22
FILE "05 - Clouds - Mind Of A Child.wav" WAVE
INDEX 01 00:00:00
TRACK 06 AUDIO
TITLE "I Know Better Than You"
PERFORMER "Clouds"
FLAGS DCP
INDEX 00 02:51:69
FILE "06 - Clouds - I Know Better Than You.wav" WAVE
INDEX 01 00:00:00
TRACK 07 AUDIO
TITLE "Leavin'"
PERFORMER "Clouds"
FLAGS DCP
INDEX 00 04:53:72
FILE "07 - Clouds - Leavin'.wav" WAVE
INDEX 01 00:00:00
TRACK 08 AUDIO
TITLE "Get Off My Farm"
PERFORMER "Clouds"
FLAGS DCP
INDEX 00 03:23:16
FILE "08 - Clouds - Get Off My Farm.wav" WAVE
INDEX 01 00:00:00
TRACK 09 AUDIO
TITLE "I Am The Melody"
PERFORMER "Clouds"
FLAGS DCP
INDEX 00 03:26:56
FILE "09 - Clouds - I Am The Melody.wav" WAVE
INDEX 01 00:00:00
TRACK 10 AUDIO
TITLE "Make No Bones About It"
PERFORMER "Clouds"
FLAGS DCP
INDEX 00 02:39:56
FILE "10 - Clouds - Make No Bones About It.wav" WAVE
INDEX 01 00:00:00
TRACK 11 AUDIO
TITLE "Heritage"
PERFORMER "Clouds"
FLAGS DCP
INDEX 00 02:35:08
FILE "11 - Clouds - Heritage.wav" WAVE
INDEX 01 00:00:00
TRACK 12 AUDIO
TITLE "Why Is There No Magic"
PERFORMER "Clouds"
FLAGS DCP
INDEX 00 04:16:40
FILE "12 - Clouds - Why Is There No Magic.wav" WAVE
INDEX 01 00:00:00
TRACK 13 AUDIO
TITLE "The World Is A Madhouse"
PERFORMER "Clouds"
FLAGS DCP
INDEX 00 02:41:17
FILE "13 - Clouds - The World Is A Madhouse.wav" WAVE
INDEX 01 00:00:00
TRACK 14 AUDIO
TITLE "Shadows"
PERFORMER "Clouds"
FLAGS DCP
INDEX 00 03:58:38
FILE "14 - Clouds - Shadows.wav" WAVE
INDEX 01 00:00:00
TRACK 15 AUDIO
TITLE "Once Upon A Time"
PERFORMER "Clouds"
FLAGS DCP
INDEX 00 02:39:63
FILE "15 - Clouds - Once Upon A Time.wav" WAVE
INDEX 01 00:00:00
TRACK 16 AUDIO
TITLE "A Day Of Rain"
PERFORMER "Clouds"
FLAGS DCP
INDEX 00 02:53:09
FILE "16 - Clouds - A Day Of Rain.wav" WAVE
INDEX 01 00:00:00
TRACK 17 AUDIO
TITLE "America"
PERFORMER "Clouds"
FLAGS DCP
INDEX 00 03:40:51
FILE "17 - Clouds - America.wav" WAVE
INDEX 01 00:00:00
TRACK 18 AUDIO
TITLE "Clockwork Soldier"
PERFORMER "Clouds"
FLAGS DCP
INDEX 00 08:08:27
FILE "18 - Clouds - Clockwork Soldier.wav" WAVE
INDEX 01 00:00:00
-----------------------

DON'T MODIFY THIS FILE

-----------------------

PERFORMER: auCDtect Task Manager, ver. 1.5.1RC6 build 1.5.1.7
Copyright (c) 2008-2010 y-soft. All rights reserved

ANALYZER: auCDtect: CD records authenticity detector, version 0.8.2
Copyright (c) 2004 Oleg Berngardt. All rights reserved.
Copyright (c) 2004 Alexander Djourik. All rights reserved.

FILE: 16 - Clouds - In The Mine.flac
Size: 24258675 Hash: 32F4BEF7C845EFD0031D9065692677E0 Accuracy: -m0
Conclusion: CDDA 100%
Signature: 609721FF0EEB5087270D3692CE7E5522010C7B21
FILE: 15 - Clouds - Big Noise From Winnetka.flac
Size: 21252510 Hash: B47D56B52B6829435211067770D40B65 Accuracy: -m0
Conclusion: CDDA 100%
Signature: 91AE6E895DF77CC391C40C24F7723E1186332E9D
FILE: 14 - Clouds - Take Me To Your Leader.flac
Size: 12222026 Hash: 1F1AF713125861D9F1994E5BB1955020 Accuracy: -m0
Conclusion: MPEG 100%
Signature: 729C3244CF5DC7739A03C7B874ABEB08C3BD2BA1
FILE: 13 - Clouds - Sing, Sing, Sing.flac
Size: 77765884 Hash: 18AB31CE04B3FFF5F2F17DCF1D43DBC4 Accuracy: -m0
Conclusion: CDDA 100%
Signature: 07F4269C1A14905FB99DBF5DAB446E9B7CE63527
FILE: 12 - Clouds - Imagine Me.flac
Size: 21737609 Hash: 7C27C32DE741AC53A8BDFCC481330825 Accuracy: -m0
Conclusion: CDDA 100%
Signature: 3402FDCA381634C0ADF9082F797DF2BF6C82CD06
FILE: 11 - Clouds - Scrapbook.flac
Size: 18263160 Hash: 5D5C64EECAB4AED2846233F3A3222443 Accuracy: -m0
Conclusion: CDDA 100%
Signature: B0C714CED4428A4087CDE10360A4207831F925E5
FILE: 10 - Clouds - Waiter There's Something In My Soup.flac
Size: 48460882 Hash: 219D2598F22E5BA06A4140D5FD0A3F06 Accuracy: -m0
Conclusion: CDDA 100%
Signature: 3F09299B3B3B7D4E6635A80DB3212B94642467EF
FILE: 09 - Clouds - Old Man.flac
Size: 22252139 Hash: B67A7D87E80A339D0209BCC429525540 Accuracy: -m0
Conclusion: CDDA 100%
Signature: E2315A35D8C1260017C904C0D2CC0FB164F4FBB4
FILE: 08 - Clouds - Union Jack.flac
Size: 8933153 Hash: E1DCE3FBCAFD9088477195D5C5C188BC Accuracy: -m0
Conclusion: CDDA 100%
Signature: 283A4633B28DCD791D95637B6988390097E7EED3
FILE: 07 - Clouds - Humdrum.flac
Size: 7479205 Hash: 32D12E5CA57443751A13DB18C8043BE7 Accuracy: -m0
Conclusion: CDDA 100%
Signature: 39D50FE42EF4FBEDAF1BA52F9C6C01472697C32D
FILE: 06 - Clouds - Ladies And Gentlemen.flac
Size: 21404766 Hash: FF724482B64DB974B8297A86C3D648B3 Accuracy: -m0
Conclusion: CDDA 100%
Signature: 848F8AA7EE72DA247F72055C373C67A70EBA50A5
FILE: 05 - Clouds - Grandad.flac
Size: 12977435 Hash: 59560B177982E749BA729BDC1D6B4D76 Accuracy: -m0
Conclusion: CDDA 100%
Signature: B19B2975D696AED689149B47CF92028CFE8A4AF4
FILE: 04 - Clouds - I'll Go Girl.flac
Size: 23159264 Hash: C1610CD8421A2DE693F2252D1A64756D Accuracy: -m0
Conclusion: CDDA 100%
Signature: BE122B347F5B3FAAC11E564B53C4944A92E43CD4
FILE: 03 - Clouds - The Colours Have Run.flac
Size: 17272164 Hash: DEC23821A4FC32BF1A030DEC95DD3A14 Accuracy: -m0
Conclusion: CDDA 100%
Signature: 3C8B2F01280E7EFDFDCA1099F71FDC307BBC634C
FILE: 02 - Clouds - The Carpenter.flac
Size: 25926545 Hash: 0ACEE8608C9A58E1ECACE5887B87E0F5 Accuracy: -m0
Conclusion: CDDA 100%
Signature: 3C1674F20DEA588C896FF05560BD6FD6C944072E
FILE: 01 - Clouds - Scrapbook Intro.flac
Size: 5717442 Hash: 0039F22169D81376FF534561CCAC802C Accuracy: -m0
Conclusion: CDDA 100%
Signature: 97D371D9F55EF6AF89FEACED6FB4A372AEC5E052
-----------------------

DON'T MODIFY THIS FILE

-----------------------

PERFORMER: auCDtect Task Manager, ver. 1.5.1RC6 build 1.5.1.7
Copyright (c) 2008-2010 y-soft. All rights reserved

ANALYZER: auCDtect: CD records authenticity detector, version 0.8.2
Copyright (c) 2004 Oleg Berngardt. All rights reserved.
Copyright (c) 2004 Alexander Djourik. All rights reserved.

FILE: 18 - Clouds - Clockwork Soldier.flac
Size: 29059203 Hash: FE71901FECA26081079DC8219EC13E73 Accuracy: -m0
Conclusion: MPEG 95%
Signature: ABDC31FDA271CEA6EEEDF6023EC82AEB1FD8B88E
FILE: 17 - Clouds - America.flac
Size: 42179518 Hash: 89E0973A7C54A8EA90FCD3EF10D40C93 Accuracy: -m0
Conclusion: MPEG 95%
Signature: 3EE5D3688881E5930E84CD2CCD2F05755D6E20DC
FILE: 16 - Clouds - A Day Of Rain.flac
Size: 19706526 Hash: 4DEE057F2080A68018844F7ED5DA72F4 Accuracy: -m0
Conclusion: MPEG 95%
Signature: 63A03B09E0CB48E366359E04704CBB8C881CEB4C
FILE: 15 - Clouds - Once Upon A Time.flac
Size: 9012902 Hash: 3C57A829A261EF37A2705FCF691CA829 Accuracy: -m0
Conclusion: CDDA 99%
Signature: 02D1B3107764A0230ED31B1E98EFD0BB10AA95EA
FILE: 14 - Clouds - Shadows.flac
Size: 18700272 Hash: 26AADACBD2D3A7E7BF43CE7C9A8B26F1 Accuracy: -m0
Conclusion: CDDA 100%
Signature: AAC7F9E3D914AD407E79E3769E9D4858D0EEB873
FILE: 13 - Clouds - The World Is A Madhouse.flac
Size: 25059512 Hash: 9F64BCB3366BBB8BEA62E8BD076FA5AC Accuracy: -m0
Conclusion: CDDA 100%
Signature: B0F7CD6DB1C3F902EEBFE19138178D303C1BA09A
FILE: 12 - Clouds - Why Is There No Magic.flac
Size: 17692043 Hash: 3A9B5FDB41C0E1F099CFFCACFFEE5FC4 Accuracy: -m0
Conclusion: CDDA 100%
Signature: C0E2C6CBD3F5DC67062F81A73B20B7A1C19BADB1
FILE: 11 - Clouds - Heritage.flac
Size: 13873781 Hash: B142D063403403FAB470E266FA4ACA3A Accuracy: -m0
Conclusion: CDDA 100%
Signature: 598C878B0357F3558785FABFBBCA23CE293719E2
FILE: 10 - Clouds - Make No Bones About It.flac
Size: 8624734 Hash: 734443E09EBF0B5E3A6145C881BA31BB Accuracy: -m0
Conclusion: CDDA 100%
Signature: 0F7D625DAAD9135C3A85A59FD284F503593FD9E0
FILE: 09 - Clouds - I Am The Melody.flac
Size: 16873277 Hash: B627B37FF0542869EA2D3E4D0C7565FF Accuracy: -m0
Conclusion: CDDA 100%
Signature: 3B0765FE11386C6A92A460D7A592D71A6870971E
FILE: 08 - Clouds - Get Off My Farm.flac
Size: 22985657 Hash: BA0CD49E29BF5F4A86208FF60DF17DEF Accuracy: -m0
Conclusion: CDDA 100%
Signature: 2D43F85DC081A5C2D67EC23FB84C5365CBC73C2B
FILE: 07 - Clouds - Leavin'.flac
Size: 20883026 Hash: D19FD1E6EDD34EB9D5D9F01E7637CB22 Accuracy: -m0
Conclusion: CDDA 100%
Signature: 932EE516B26EC8E416ADD64A7B6AE077BA6F1C67
FILE: 06 - Clouds - I Know Better Than You.flac
Size: 33727171 Hash: 6B628E1138265EB7FD7D3251B93E64CF Accuracy: -m0
Conclusion: CDDA 100%
Signature: 168D3BAC26555B2CAAB145D2E8D4EE0EE3B221FC
FILE: 05 - Clouds - Mind Of A Child.flac
Size: 18754535 Hash: D819E4E5C6FFE1E0579174E24E8B2CCB Accuracy: -m0
Conclusion: CDDA 100%
Signature: 797D17490E41C7C68F7331700B4D2A2435753D74
FILE: 04 - Clouds - Long Time.flac
Size: 26453459 Hash: F8D35C7BD611FA09B3F4832315857A0B Accuracy: -m0
Conclusion: CDDA 100%
Signature: 2B4B01666DF03EDB773CF177297F4BB9C0BDAA48
FILE: 03 - Clouds - Lighthouse.flac
Size: 30957551 Hash: AA20BAD38794C4C16C9D357A7A5BFF19 Accuracy: -m0
Conclusion: CDDA 100%
Signature: 4814164013E7283D2AEF1C4ECF268FE3DB32EB2E
FILE: 02 - Clouds - Cold Sweat.flac
Size: 25418121 Hash: A728FCFECEA355EC80AD40627CE16CC1 Accuracy: -m0
Conclusion: CDDA 100%
Signature: F95BC9812C584EA692B25BB05C8DBD22200C5B05
FILE: 01 - Clouds - Watercolour Days.flac
Size: 34277548 Hash: 6CA25F53F786BF6540D3A94245E17F1A Accuracy: -m0
Conclusion: CDDA 100%
Signature: 821214D31E5BB0CFE3B1DBFA290528D6893EECBE
Disc One:
Disc Two:
http://www.cloudsmusic.com/
<a href="http://en.wikipedia.org/wiki/Clouds_(60s_rock_band)" class="postLink">http://en.wikipedia.org/wiki/Clouds_(60s_rock_band)</a>
http://www.progarchives.com/artist.asp?id=4512
Ian Ellis-bass, vocals, harmonica
Harry Hughes-drums, glockenspiel, trumpet
Billy Ritchie-keyboards, acoustic guitar, vocals, bass
Acoustic Guitar– Billy Ritchie (tracks: 1-1, 1-3, 1-6, 1-11, 1-16, 2-10, 2-12)
Backing Vocals– Billy Ritchie (tracks: 1-2, 1-4, 1-7, 1-10 to 1-16, 2-8 to 2-9, 2-11, 2-15, 2-17), Ian Ellis (tracks: 1-5 to 1-8, 2-1, 2-7, 2-10)
Bass– Billy Ritchie (tracks: 1-9), George Ritchie (tracks: 2-12, 2-14), Ian Ellis (tracks: 1-2, 1-4 to 1-6, 1-8, 1-10 to 1-16, 2-1 to 2-11, 2-15, 2-17), Peter Sapsard (tracks: 2-13)
Drums– Harry Hughes (tracks: 1-2, 1-4 to 1-15, 2-1 to 2-11, 2-13, 2-15, 2-17), Mike Kidson (tracks: 2-12, 2-14)
Electric Piano– Billy Ritchie (tracks: 2-12, 2-14, 2-16, 2-18)
Electronic Drums– Harry Hughes (tracks: 2-16, 2-18)
Glockenspiel– Harry Hughes (tracks: 2-10)
Grand Piano– Billy Ritchie (tracks: 1-4, 1-12 to 1-13, 2-1, 2-3 to 2-7, 2-12 to 2-14), David Palmer (2) (tracks: 1-5)
Harmonica– Ian Ellis (tracks: 1-9, 2-3)
Harpsichord– Billy Ritchie (tracks: 2-9)
Lead Guitar– Alvin Lee (tracks: 1-4), Rod Butler (tracks: 2-13), Steve Gould (tracks: 2-12)
Lead Vocals– Billy Ritchie (tracks: 1-5 to 1-6, 1-8, 2-1, 2-7, 2-10, 2-12 to 2-14, 2-16, 2-18), Ian Ellis (tracks: 1-1 to 1-4, 1-9 to 1-15, 2-2 to 2-6, 2-8 to 2-9, 2-11, 2-15, 2-17)
Mellotron– Billy Ritchie (tracks: 2-16, 2-18)
Orchestrated By– David Palmer (2) (tracks: 1-3, 1-6, 1-8, 1-10 to 1-11, 1-14, 2-1, 2-9, 2-15)
Organ [Hammond]– Billy Ritchie (tracks: 1-2, 1-4, 1-10, 1-12 to 1-15, 2-1 to 2-9, 2-11, 2-15, 2-17)
Synthesizer– Billy Ritchie (tracks: 2-16, 2-18)
Trumpet– Harry Hughes (tracks: 1-16)
Written-By– Billy Ritchie (tracks: 1-1 to 1-12, 1-14, 1-16, 2-1 to 2-16, 2-18), Bob Haggart (tracks: 1-15), Harry Hughes (tracks: 1-2, 1-7, 1-14, 2-5 to 2-6, 2-8, 2-15), Ian Ellis (tracks: 1-2, 1-7, 1-9, 1-14, 2-2 to 2-6, 2-8, 2-11, 2-15), Louis Prima (tracks: 1-13), Paul Simon (tracks: 2-17), Ray Bauduc (tracks: 1-15), Valdemar Ellis (tracks: 1-3)


Трекер:  [ 04-Сен-2012 16:15 ]

  

Скачать .torrent

Размер .torrent файла 18 KB


Размер: 771 MB
Хэш (hash) релиза: 98b2e19b6e8c2c56f0d576392eda0d3ab4595f3f

Еще никто не оставлял запись к записи скачать торрент Clouds - Up Above Our Heads: Clouds 1966-71 . Будь первым!

!Обратная связь