Скачать через торрент Hinder - Дискография - 2003-2010, ALAC бесплатно русская версия torrent активатор

Если у вас наблюдаются проблемы со скриншотами, переходом по ссылками, скачиванием торрентов - проблемы в блокировщике рекламы AdBlock. #хорошегоДня!


Статистика раздачи
Размер:  1.72 GB   |    Зарегистрирован:  5 лет 1 месяц   |    .torrent скачан:  79 раз   |   
Раздают:  1  
   
Загрузка...
 
Автор Сообщение

L





Страна : США | Жанр : Post-grunge | Год : 2003-2010 | Аудио кодек : ALAC | Продолжительность : 3,9 часа | Теги : Имеются*
Hinder — американская рок-группа из Оклахомы, сформированная в 2001 году барабанщиком Кодом Хэнсоном, гитаристом Джои Гэрвеем и солистом Аустином Винклером. Группа является членом "Оклахомского музыкального музея славы" ("Oklahoma Music Hall of Fame") с 2007 года. По мнению американских критиков, Hinder, как и Chevelle, Buckcherry и Three Days Grace, является одной из ярчайшиx примеров групп так называемого – «нового старого рока», и принадлежит к волне музыкантов, которые возрождают изначальное понятие «рок-группа»

(2003) - Far From Close EP


01. (03:44) - Paste
02. (03:31) - Lay Me Down
03. (04:11) - Feelings
04. (03:12) - Look Back
05. (03:32) - End Of Me
06. (03:25) - Stay The Same
07. (03:53) - Asylum
08. (02:50) - Back And Forth
09. (03:50) - Jealous Man
10. (03:40) - Eternity
11. (04:44) - Someday
12. (05:21) - Broken
13. (04:03) - Upside Down
(2005) - Extreme Behavior

01. (3:38) - Get Stoned
02. (3:24) - How Long
03. (3:51) - By the Way
04. (3:52) - Nothin' Good About Goodbye
05. (3:50) - Bliss (I Don't Wanna Know)
06. (3:43) - Better Than Me
07. (3:43) - Room 21
08. (4:21) - Lips of an Angel
09. (4:38) - Homecoming Queen
10. (3:17) - Shoulda
11. (4:02) - Born To Be Wild (Steppenwolf Cover)
12. (3:35) - Get Stoned (Piano Version)
13. (5:58) - Bed of Roses (Bon Jovi Cover)
14. (3:37) - Take Me Home Tonight (Eddie Money Cover)
15. (3:36) - By The Way (Acoustic Version)
16. (3:46) - Bliss (I Don't Wanna Know) (Acoustic Version)
(2008) - Take It to the Limit (Deluxe Edition)

01. (3.49) - Use Me
02. (4.06) - Loaded And Alone
03. (3.48) - Last Kiss Goodbye
04. (3.33) - Up All Night
05. (3.52) - Without You
06. (3.11) - Take It To The Limit (Feat. Mick Mars From Motley Crue)
07. (3.22) - The Best Is Yet To Come
08. (3.41) - Heaven Sent
09. (3.59) - Thing For You
10. (3.52) - Lost In The Sun
11. (4.03) - Far From Home
12. (3.42) - Heaven Sent (Live) (Bonus Track)
13. (3.34) - Loaded And Alone (Acoustic Version) (Bonus Track)
14. (3.46) - Lost In The Sun (Live) (Bonus Track)
15. (3.21) - The Best Is Yet To Come (Acoustic Version) (Bonus Track)
16. (3.52) - Without You (Acoustic Version) (Bonus Track)
17. (4.30) - Use Me (Live) (Bonus Track)
18. (4.52) - Thunderstruck (AC-DC Cover) (Bonus Track)
19. (2.56) - Live For Today (Bonus Track)
20. (3.35) - Running In The Rain (Bonus Track)
(2010) - All American Nightmare (Deluxe Edition)

01. (3:25) - 2 Sides Of Me
02. (3:17) - All American Nightmare
03. (4:07) - What Ya Gonna Do
04. (3:34) - Hey Ho
05. (3:37) - The Life
06. (4:12) - Waking Up The Devil
07. (3:48) - Red Tail Lights
08. (3:29) - Striptease
09. (3:41) - Everybody's Wrong
10. (3:39) - Put That Record On
11. (3:36) - Good Life
12. (3:35) - Bad Motherfucka
13. (3:43) - Put That Record On (Demo Version)
14. (4:14) - What Ya Gonna Do (Demo Version)

●Обложка
●Тексты (*ВНИМАНИЕ :
В альбоме "Far From Close" у некоторых песен отсутствуют тексты)
●Исполнитель
●Альбом
●Жанр
●Номера дорожек
Exact Audio Copy V0.99 prebeta 4 from 23. January 2008

EAC extraction logfile from 16. May 2009, 12:37

Hinder / Far From Close

Used drive : _NEC DVD_RW ND-3520A Adapter: 2 ID: 0

Read mode : Secure
Utilize accurate stream : Yes
Defeat audio cache : Yes
Make use of C2 pointers : No

Read offset correction : 48
Overread into Lead-In and Lead-Out : No
Fill up missing offset samples with silence : Yes
Delete leading and trailing silent blocks : No
Null samples used in CRC calculations : Yes
Used interface : Native Win32 interface for Win NT & 2000
Gap handling : Appended to previous track

Used output format : User Defined Encoder
Selected bitrate : 128 kBit/s
Quality : High
Add ID3 tag : No
Command line compressor : C:\Program Files\Exact Audio Copy\Flac\flac.exe
Additional command line options : -V -8 -T "artist=%a" -T "title=%t" -T "album=%g" -T "date=%y" -T "tracknumber=%n" -T "genre=%m" %s

TOC of the extracted CD

Track | Start | Length | Start sector | End sector
---------------------------------------------------------
1 | 0:00.00 | 3:43.43 | 0 | 16767
2 | 3:43.43 | 3:30.70 | 16768 | 32587
3 | 7:14.38 | 4:10.71 | 32588 | 51408
4 | 11:25.34 | 3:12.25 | 51409 | 65833
5 | 14:37.59 | 3:31.72 | 65834 | 81730
6 | 18:09.56 | 3:24.74 | 81731 | 97104
7 | 21:34.55 | 3:52.38 | 97105 | 114542
8 | 25:27.18 | 2:49.66 | 114543 | 127283
9 | 28:17.09 | 3:49.63 | 127284 | 144521
10 | 32:06.72 | 3:39.41 | 144522 | 160987
11 | 35:46.38 | 4:44.14 | 160988 | 182301
12 | 40:30.52 | 5:21.35 | 182302 | 206411
13 | 45:52.12 | 4:02.53 | 206412 | 224614

Track 1

Filename D:\мьюзиккк!\Hinder\Hinder - 2003 - Far From Close\01 - Paste.wav

Pre-gap length 0:00:02.00

Peak level 97.6 %
Track quality 99.8 %
Test CRC 63D86BA4
Copy CRC 63D86BA4
Track not present in AccurateRip database
Copy OK

Track 2

Filename D:\мьюзиккк!\Hinder\Hinder - 2003 - Far From Close\02 - Lay Me Down.wav

Peak level 97.6 %
Track quality 99.9 %
Test CRC 17AFA753
Copy CRC 17AFA753
Track not present in AccurateRip database
Copy OK

Track 3

Filename D:\мьюзиккк!\Hinder\Hinder - 2003 - Far From Close\03 - Feelings.wav

Peak level 97.6 %
Track quality 100.0 %
Test CRC 25E980AD
Copy CRC 25E980AD
Track not present in AccurateRip database
Copy OK

Track 4

Filename D:\мьюзиккк!\Hinder\Hinder - 2003 - Far From Close\04 - Look Back.wav

Peak level 97.6 %
Track quality 100.0 %
Test CRC D4AF4DF4
Copy CRC D4AF4DF4
Track not present in AccurateRip database
Copy OK

Track 5

Filename D:\мьюзиккк!\Hinder\Hinder - 2003 - Far From Close\05 - End Of Me.wav

Peak level 97.6 %
Track quality 100.0 %
Test CRC D4BEA577
Copy CRC D4BEA577
Track not present in AccurateRip database
Copy OK

Track 6

Filename D:\мьюзиккк!\Hinder\Hinder - 2003 - Far From Close\06 - Stay The Same.wav

Peak level 97.6 %
Track quality 100.0 %
Test CRC C14BC554
Copy CRC C14BC554
Track not present in AccurateRip database
Copy OK

Track 7

Filename D:\мьюзиккк!\Hinder\Hinder - 2003 - Far From Close\07 - My Asylum.wav

Peak level 97.6 %
Track quality 100.0 %
Test CRC 076334B5
Copy CRC 076334B5
Track not present in AccurateRip database
Copy OK

Track 8

Filename D:\мьюзиккк!\Hinder\Hinder - 2003 - Far From Close\08 - Back And Forth.wav

Peak level 97.6 %
Track quality 100.0 %
Test CRC B7184B14
Copy CRC B7184B14
Track not present in AccurateRip database
Copy OK

Track 9

Filename D:\мьюзиккк!\Hinder\Hinder - 2003 - Far From Close\09 - Jealous Man.wav

Peak level 97.6 %
Track quality 100.0 %
Test CRC D55DDA08
Copy CRC D55DDA08
Track not present in AccurateRip database
Copy OK

Track 10

Filename D:\мьюзиккк!\Hinder\Hinder - 2003 - Far From Close\10 - Eternity.wav

Peak level 97.6 %
Track quality 100.0 %
Test CRC 291D5842
Copy CRC 291D5842
Track not present in AccurateRip database
Copy OK

Track 11

Filename D:\мьюзиккк!\Hinder\Hinder - 2003 - Far From Close\11 - Someday.wav

Peak level 97.6 %
Track quality 100.0 %
Test CRC 5C24D04E
Copy CRC 5C24D04E
Track not present in AccurateRip database
Copy OK

Track 12

Filename D:\мьюзиккк!\Hinder\Hinder - 2003 - Far From Close\12 - Broken.wav

Peak level 97.6 %
Track quality 100.0 %
Test CRC 3DAC7C82
Copy CRC 3DAC7C82
Track not present in AccurateRip database
Copy OK

Track 13

Filename D:\мьюзиккк!\Hinder\Hinder - 2003 - Far From Close\13 - Upside Down.wav

Peak level 97.6 %
Track quality 100.0 %
Test CRC 81D86E9A
Copy CRC 81D86E9A
Track not present in AccurateRip database
Copy OK

None of the tracks are present in the AccurateRip database

No errors occurred

End of status report
Exact Audio Copy V0.99 prebeta 4 from 23. January 2008

EAC extraction logfile from 5. May 2009, 8:54

Hinder / Extreme Behavior

Used drive : ASUS DVD-E616A Adapter: 2 ID: 0

Read mode : Secure
Utilize accurate stream : Yes
Defeat audio cache : Yes
Make use of C2 pointers : No

Read offset correction : 6
Overread into Lead-In and Lead-Out : No
Fill up missing offset samples with silence : Yes
Delete leading and trailing silent blocks : No
Null samples used in CRC calculations : Yes
Used interface : Native Win32 interface for Win NT & 2000
Gap handling : Appended to previous track

Used output format : User Defined Encoder
Selected bitrate : 128 kBit/s
Quality : High
Add ID3 tag : No
Command line compressor : C:\Program Files\Exact Audio Copy\Flac\flac.exe
Additional command line options : -V -8 -T "artist=%a" -T "title=%t" -T "album=%g" -T "date=%y" -T "tracknumber=%n" -T "genre=%m" %s

TOC of the extracted CD

Track | Start | Length | Start sector | End sector
---------------------------------------------------------
1 | 0:00.00 | 3:38.29 | 0 | 16378
2 | 3:38.29 | 3:24.56 | 16379 | 31734
3 | 7:03.10 | 3:51.51 | 31735 | 49110
4 | 10:54.61 | 3:52.46 | 49111 | 66556
5 | 14:47.32 | 3:50.18 | 66557 | 83824
6 | 18:37.50 | 3:43.40 | 83825 | 100589
7 | 22:21.15 | 3:43.35 | 100590 | 117349
8 | 26:04.50 | 4:21.64 | 117350 | 136988
9 | 30:26.39 | 4:38.64 | 136989 | 157902
10 | 35:05.28 | 3:16.70 | 157903 | 172672

Track 1

Filename C:\EACrips\Hinder - Extreme Behavior [FLAC]\01 - Get Stoned.wav

Pre-gap length 0:00:02.00

Peak level 99.9 %
Track quality 100.0 %
Test CRC 9F0DFF69
Copy CRC 9F0DFF69
Accurately ripped (confidence 89) [DAB3F1CA]
Copy OK

Track 2

Filename C:\EACrips\Hinder - Extreme Behavior [FLAC]\02 - How Long.wav

Peak level 99.9 %
Track quality 100.0 %
Test CRC 6F14A822
Copy CRC 6F14A822
Accurately ripped (confidence 88) [16F3227E]
Copy OK

Track 3

Filename C:\EACrips\Hinder - Extreme Behavior [FLAC]\03 - By The Way.wav

Peak level 99.9 %
Track quality 100.0 %
Test CRC E65E94EE
Copy CRC E65E94EE
Accurately ripped (confidence 87) [64452C6B]
Copy OK

Track 4

Filename C:\EACrips\Hinder - Extreme Behavior [FLAC]\04 - Nothin' Good About Goodbye.wav

Peak level 100.0 %
Track quality 100.0 %
Test CRC 32EFBDE7
Copy CRC 32EFBDE7
Accurately ripped (confidence 86) [82D3285B]
Copy OK

Track 5

Filename C:\EACrips\Hinder - Extreme Behavior [FLAC]\05 - Bliss (I Don't Wanna Know).wav

Peak level 99.9 %
Track quality 100.0 %
Test CRC 1EE7BE37
Copy CRC 1EE7BE37
Accurately ripped (confidence 88) [DAC11135]
Copy OK

Track 6

Filename C:\EACrips\Hinder - Extreme Behavior [FLAC]\06 - Better Than Me.wav

Peak level 99.9 %
Track quality 100.0 %
Test CRC E30CA050
Copy CRC E30CA050
Accurately ripped (confidence 87) [AB9DDAFA]
Copy OK

Track 7

Filename C:\EACrips\Hinder - Extreme Behavior [FLAC]\07 - Room 21.wav

Peak level 100.0 %
Track quality 99.9 %
Test CRC 4FBC386B
Copy CRC 4FBC386B
Accurately ripped (confidence 87) [C29D020A]
Copy OK

Track 8

Filename C:\EACrips\Hinder - Extreme Behavior [FLAC]\08 - Lips Of An Angel.wav

Peak level 99.9 %
Track quality 100.0 %
Test CRC 80D2D30D
Copy CRC 80D2D30D
Accurately ripped (confidence 90) [B551B83B]
Copy OK

Track 9

Filename C:\EACrips\Hinder - Extreme Behavior [FLAC]\09 - Homecoming Queen.wav

Peak level 99.9 %
Track quality 100.0 %
Test CRC 63D1488A
Copy CRC 63D1488A
Accurately ripped (confidence 89) [E6381018]
Copy OK

Track 10

Filename C:\EACrips\Hinder - Extreme Behavior [FLAC]\10 - Shoulda.wav

Peak level 99.9 %
Track quality 99.9 %
Test CRC A41FAE98
Copy CRC A41FAE98
Accurately ripped (confidence 86) [0A14EBC6]
Copy OK

All tracks accurately ripped

No errors occurred

End of status report
Exact Audio Copy V0.99 prebeta 4 from 23. January 2008

EAC extraction logfile from 16. May 2009, 13:37

Hinder / Take It To The Limit (Deluxe Edition)

Used drive : _NEC DVD_RW ND-3520A Adapter: 2 ID: 0

Read mode : Secure
Utilize accurate stream : Yes
Defeat audio cache : Yes
Make use of C2 pointers : No

Read offset correction : 48
Overread into Lead-In and Lead-Out : No
Fill up missing offset samples with silence : Yes
Delete leading and trailing silent blocks : No
Null samples used in CRC calculations : Yes
Used interface : Native Win32 interface for Win NT & 2000
Gap handling : Appended to previous track

Used output format : User Defined Encoder
Selected bitrate : 128 kBit/s
Quality : High
Add ID3 tag : No
Command line compressor : C:\Program Files\Exact Audio Copy\Flac\flac.exe
Additional command line options : -V -8 -T "artist=%a" -T "title=%t" -T "album=%g" -T "date=%y" -T "tracknumber=%n" -T "genre=%m" %s

TOC of the extracted CD

Track | Start | Length | Start sector | End sector
---------------------------------------------------------
1 | 0:00.00 | 3:49.55 | 0 | 17229
2 | 3:49.55 | 4:06.11 | 17230 | 35690
3 | 7:55.66 | 3:48.59 | 35691 | 52849
4 | 11:44.50 | 3:33.50 | 52850 | 68874
5 | 15:18.25 | 3:52.20 | 68875 | 86294
6 | 19:10.45 | 3:11.20 | 86295 | 100639
7 | 22:21.65 | 3:22.55 | 100640 | 115844
8 | 25:44.45 | 3:41.17 | 115845 | 132436
9 | 29:25.62 | 3:59.29 | 132437 | 150390
10 | 33:25.16 | 3:52.68 | 150391 | 167858
11 | 37:18.09 | 4:03.65 | 167859 | 186148
12 | 41:21.74 | 3:42.38 | 186149 | 202836
13 | 45:04.37 | 3:34.26 | 202837 | 218912
14 | 48:38.63 | 3:46.42 | 218913 | 235904
15 | 52:25.30 | 3:21.01 | 235905 | 250980
16 | 55:46.31 | 3:52.13 | 250981 | 268393
17 | 59:38.44 | 4:30.50 | 268394 | 288693
18 | 64:09.19 | 4:52.48 | 288694 | 310641
19 | 69:01.67 | 2:56.53 | 310642 | 323894
20 | 71:58.45 | 3:35.47 | 323895 | 340066

Track 1

Filename D:\мьюзиккк!\Hinder\Hinder - 2008 - Take It To The Limit (Deluxe Edition)\01 - Use Me.wav

Pre-gap length 0:00:02.00

Peak level 100.0 %
Track quality 99.8 %
Test CRC 47B930DD
Copy CRC 47B930DD
Track not present in AccurateRip database
Copy OK

Track 2

Filename D:\мьюзиккк!\Hinder\Hinder - 2008 - Take It To The Limit (Deluxe Edition)\02 - Loaded And Alone.wav

Peak level 100.0 %
Track quality 99.9 %
Test CRC 97481A97
Copy CRC 97481A97
Track not present in AccurateRip database
Copy OK

Track 3

Filename D:\мьюзиккк!\Hinder\Hinder - 2008 - Take It To The Limit (Deluxe Edition)\03 - Last Kiss Goodbye.wav

Peak level 100.0 %
Track quality 99.9 %
Test CRC A7C34E23
Copy CRC A7C34E23
Track not present in AccurateRip database
Copy OK

Track 4

Filename D:\мьюзиккк!\Hinder\Hinder - 2008 - Take It To The Limit (Deluxe Edition)\04 - Up All Night.wav

Peak level 100.0 %
Track quality 100.0 %
Test CRC DADAB554
Copy CRC DADAB554
Track not present in AccurateRip database
Copy OK

Track 5

Filename D:\мьюзиккк!\Hinder\Hinder - 2008 - Take It To The Limit (Deluxe Edition)\05 - Without You.wav

Peak level 100.0 %
Track quality 100.0 %
Test CRC E5BA532D
Copy CRC E5BA532D
Track not present in AccurateRip database
Copy OK

Track 6

Filename D:\мьюзиккк!\Hinder\Hinder - 2008 - Take It To The Limit (Deluxe Edition)\06 - Take It To The Limit (Feat. Mick Mars From Motley Crue).wav

Peak level 100.0 %
Track quality 99.9 %
Test CRC 7DFFA1AB
Copy CRC 7DFFA1AB
Track not present in AccurateRip database
Copy OK

Track 7

Filename D:\мьюзиккк!\Hinder\Hinder - 2008 - Take It To The Limit (Deluxe Edition)\07 - The Best Is Yet To Come.wav

Peak level 100.0 %
Track quality 100.0 %
Test CRC 7FEE173E
Copy CRC 7FEE173E
Track not present in AccurateRip database
Copy OK

Track 8

Filename D:\мьюзиккк!\Hinder\Hinder - 2008 - Take It To The Limit (Deluxe Edition)\08 - Heaven Sent.wav

Peak level 100.0 %
Track quality 99.9 %
Test CRC BB42108A
Copy CRC CE289841
Track not present in AccurateRip database
Copy OK

Track 9

Filename D:\мьюзиккк!\Hinder\Hinder - 2008 - Take It To The Limit (Deluxe Edition)\09 - Thing For You.wav

Peak level 100.0 %
Track quality 99.9 %
Test CRC E7476DCA
Copy CRC E7476DCA
Track not present in AccurateRip database
Copy OK

Track 10

Filename D:\мьюзиккк!\Hinder\Hinder - 2008 - Take It To The Limit (Deluxe Edition)\10 - Lost In The Sun.wav

Peak level 100.0 %
Track quality 100.0 %
Test CRC 71EE512F
Copy CRC 71EE512F
Track not present in AccurateRip database
Copy OK

Track 11

Filename D:\мьюзиккк!\Hinder\Hinder - 2008 - Take It To The Limit (Deluxe Edition)\11 - Far From Home.wav

Peak level 100.0 %
Track quality 100.0 %
Test CRC 745ED42A
Copy CRC 745ED42A
Track not present in AccurateRip database
Copy OK

Track 12

Filename D:\мьюзиккк!\Hinder\Hinder - 2008 - Take It To The Limit (Deluxe Edition)\12 - Heaven Sent (Live) (Bonus Track).wav

Peak level 89.6 %
Track quality 99.9 %
Test CRC FB881CA3
Copy CRC FB881CA3
Track not present in AccurateRip database
Copy OK

Track 13

Filename D:\мьюзиккк!\Hinder\Hinder - 2008 - Take It To The Limit (Deluxe Edition)\13 - Loaded And Alone (Acoustic Version) (Bonus Track).wav

Peak level 91.2 %
Track quality 100.0 %
Test CRC 440806B2
Copy CRC 440806B2
Track not present in AccurateRip database
Copy OK

Track 14

Filename D:\мьюзиккк!\Hinder\Hinder - 2008 - Take It To The Limit (Deluxe Edition)\14 - Lost In The Sun (Live) (Bonus Track).wav

Peak level 84.6 %
Track quality 100.0 %
Test CRC 0C91E16C
Copy CRC 0C91E16C
Track not present in AccurateRip database
Copy OK

Track 15

Filename D:\мьюзиккк!\Hinder\Hinder - 2008 - Take It To The Limit (Deluxe Edition)\15 - The Best Is Yet To Come (Acoustic Version) (Bonus Track).wav

Peak level 90.1 %
Track quality 100.0 %
Test CRC 57E84A0C
Copy CRC 57E84A0C
Track not present in AccurateRip database
Copy OK

Track 16

Filename D:\мьюзиккк!\Hinder\Hinder - 2008 - Take It To The Limit (Deluxe Edition)\16 - Without You (Acoustic Version) (Bonus Track).wav

Peak level 89.1 %
Track quality 100.0 %
Test CRC BC7BB46B
Copy CRC BC7BB46B
Track not present in AccurateRip database
Copy OK

Track 17

Filename D:\мьюзиккк!\Hinder\Hinder - 2008 - Take It To The Limit (Deluxe Edition)\17 - Use Me (Live) (Bonus Track).wav

Peak level 87.6 %
Track quality 100.0 %
Test CRC C46CBAA1
Copy CRC DFB7A611
Track not present in AccurateRip database
Copy OK

Track 18

Filename D:\мьюзиккк!\Hinder\Hinder - 2008 - Take It To The Limit (Deluxe Edition)\18 - Thunderstruck (AC,DC Cover) (Bonus Track).wav

Peak level 100.0 %
Track quality 100.0 %
Test CRC 2930C34F
Copy CRC 2930C34F
Track not present in AccurateRip database
Copy OK

Track 19

Filename D:\мьюзиккк!\Hinder\Hinder - 2008 - Take It To The Limit (Deluxe Edition)\19 - Live For Today (Bonus Track).wav

Peak level 100.0 %
Track quality 100.0 %
Test CRC E2C48BBF
Copy CRC E2C48BBF
Track not present in AccurateRip database
Copy OK

Track 20

Filename D:\мьюзиккк!\Hinder\Hinder - 2008 - Take It To The Limit (Deluxe Edition)\20 - Running In The Rain (Bonus Track).wav

Peak level 100.0 %
Track quality 99.9 %
Test CRC 213B3BDB
Copy CRC 213B3BDB
Track not present in AccurateRip database
Copy OK

None of the tracks are present in the AccurateRip database

No errors occurred

End of status report
Exact Audio Copy V0.99 prebeta 5 from 4. May 2009

Отчёт EAC об извлечении, выполненном 10. декабря 2010, 20:33

Hinder / All American Nightmare

Дисковод: MATSHITABD-MLT UJ240ES Adapter: 0 ID: 1

Режим чтения : Достоверность
Использование точного потока : Да
Отключение кэша аудио : Да
Использование указателей C2 : Нет

Коррекция смещения при чтении : 103
Способность читать области Lead-in и Lead-out : Нет
Заполнение пропущенных сэмплов тишиной : Да
Удаление блоков с тишиной в начале и конце : Нет
При вычислениях CRC использовались нулевые сэмплы : Да
Интерфейс : Встроенный Win32-интерфейс для Win NT/2000

Выходной формат : Пользовательский кодировщик
Выбранный битрейт : 1024 kBit/s
Качество : Высокий
Добавление ID3-тэга : Нет
Утилита сжатия : C:\Program Files (x86)\Exact Audio Copy\FLAC\FLAC.EXE
Дополнительные параметры : -6 -V -T "ARTIST=%a" -T "TITLE=%t" -T "ALBUM=%g" -T "DATE=%y" -T "TRACKNUMBER=%n" -T "GENRE=%m" -T "COMMENT=%e" %s -o %d

TOC извлечённого CD

Трек | Старт | Длительность | Начальный сектор | Конечный сектор
---------------------------------------------------------------------
1 | 0:00.00 | 3:24.44 | 0 | 15343
2 | 3:24.44 | 3:17.32 | 15344 | 30150
3 | 6:42.01 | 4:06.67 | 30151 | 48667
4 | 10:48.68 | 3:33.65 | 48668 | 64707
5 | 14:22.58 | 3:37.13 | 64708 | 80995
6 | 17:59.71 | 4:11.57 | 80996 | 99877
7 | 22:11.53 | 3:48.23 | 99878 | 117000
8 | 26:00.01 | 3:29.03 | 117001 | 132678
9 | 29:29.04 | 3:41.23 | 132679 | 149276
10 | 33:10.27 | 3:38.46 | 149277 | 165672
11 | 36:48.73 | 3:35.44 | 165673 | 181841
12 | 40:24.42 | 3:34.50 | 181842 | 197941
13 | 43:59.17 | 3:43.34 | 197942 | 214700
14 | 47:42.51 | 4:14.35 | 214701 | 233785
15 | 54:29.11 | 11:21.26 | 245186 | 296286

Характеристики диапазона извлечения и сообщения об ошибках

Выбранный диапазон

Имя файла C:\Users\Николай\Desktop\Hinder - All American Nightmare.wav

Пиковый уровень 100.0 %
Качество диапазона 100.0 %
CRC копии 00CF6852
Копирование... OK

Ошибок не произошло

AccurateRip: сводка

Трек 1 нет в базе данных
Трек 2 нет в базе данных
Трек 3 нет в базе данных
Трек 4 нет в базе данных
Трек 5 нет в базе данных
Трек 6 нет в базе данных
Трек 7 нет в базе данных
Трек 8 нет в базе данных
Трек 9 нет в базе данных
Трек 10 нет в базе данных
Трек 11 нет в базе данных
Трек 12 нет в базе данных
Трек 13 нет в базе данных
Трек 14 нет в базе данных

Ни одного трека нет в базе AccurateRip

Конец отчёта


Трекер:  [ 04-Сен-2012 08:23 ]

  

Скачать .torrent

Размер .torrent файла 24 KB


Размер: 1.72 GB
Хэш (hash) релиза: 5dc70efde5050b309f1016dded1ad10df6465632

Еще никто не оставлял запись к записи скачать торрент Hinder - Дискография - 2003-2010, ALAC . Будь первым!

!Обратная связь