Скачать через торрент музыку Tokio - Triangles - 2000, APE бесплатно без регистрации torrent

Если у вас наблюдаются проблемы со скриншотами, переходом по ссылками, скачиванием торрентов - проблемы в блокировщике рекламы AdBlock. #хорошегоДня!


Статистика раздачи
Размер:  271 MB   |    Зарегистрирован:  4 года 11 месяцев   |    .torrent скачан:  9 раз   |   
Раздают:  1  
   
Загрузка...
 
Автор Сообщение

Galfimbul

avatar Galfimbul


Tokio - Triangles

Жанр: Melodic Hard Rock
Страна-производитель диска: Spain
Год издания: 2000
Издатель (лейбл): Vinny Records
Номер по каталогу: VR-005
Страна: Spain
Аудиокодек: APE (*.ape)
Тип рипа: image+.cue
Битрейт аудио: lossless
Продолжительность: 37:21
Источник (релизер): original CD
Наличие сканов в содержимом раздачи: да

Треклист:

01. Love Story In Tokio [0:03:38.13]
02. We Want Peace [0:03:21.57]
03. Face To Face [0:03:52.56]
04. Don't Leave [0:04:06.02]
05. Do It [0:04:18.56]
06. Tonight [0:03:47.18]
07. Give Me A Chance [0:03:51.11]
08. Bluesman [0:04:28.65]
09. Rock Is Light [0:04:09.41]
10. Triangles [0:01:46.38]
Exact Audio Copy V1.0 beta 1 from 15. November 2010

Отчёт EAC об извлечении, выполненном 3. сентября 2012, 13:22

Tokio / Triangles

Дисковод: Optiarc DVD RW AD-7261S Adapter: 1 ID: 1

Режим чтения : ДостоверностьИспользование точного потока : ДаОтключение кэша аудио : ДаИспользование указателей C2 : Нет

Коррекция смещения при чтении : 48Способность читать области Lead-in и Lead-out : НетЗаполнение пропущенных сэмплов тишиной : ДаУдаление блоков с тишиной в начале и конце : НетПри вычислениях CRC использовались нулевые сэмплы : ДаИнтерфейс : Встроенный Win32-интерфейс для Win NT/2000

Выходной формат : Monkey's Audio (без потерь)Выбранный битрейт : Normal Lossless CompressionКачество : ВысокийДобавление ID3-тега : ДаУтилита сжатия : C:\Program Files\Monkey's Audio\MAC.exe

TOC извлечённого CD

Трек | Старт | Длительность | Начальный сектор | Конечный сектор --------------------------------------------------------------------- 1 | 0:00.00 | 3:38.13 | 0 | 16362 2 | 3:38.13 | 3:21.57 | 16363 | 31494 3 | 6:59.70 | 3:52.56 | 31495 | 48950 4 | 10:52.51 | 4:06.02 | 48951 | 67402 5 | 14:58.53 | 4:18.56 | 67403 | 86808 6 | 19:17.34 | 3:47.18 | 86809 | 103851 7 | 23:04.52 | 3:51.11 | 103852 | 121187 8 | 26:55.63 | 4:28.65 | 121188 | 141352 9 | 31:24.53 | 4:09.41 | 141353 | 160068 10 | 35:34.19 | 1:46.38 | 160069 | 168056

Характеристики диапазона извлечения и сообщения об ошибках

Выбранный диапазон

Имя файла D:\Downloads\Tokio - Triangles.wav

Пиковый уровень 100.0 % Скорость извлечения 0.1 X Качество диапазона 99.9 % CRC теста ACC31936 CRC копии ACC31936 Копирование... OK

Ошибок не произошло

Конец отчёта
Manuel Escudero lead & backing vocals
Juan Carlos Martin Nunez guitars & vocals
Jose Luis Alonso Martin bass & vocals
Alberto Fernandez keyboards & vocals
Manuel Sanchez drums & vocals


Трекер:  [ 04-Сен-2012 16:15 ]

  

Скачать .torrent

Размер .torrent файла 11 KB


Размер: 271 MB
Хэш (hash) релиза: d4a8c5f03363ab4b01affdf5f8a8c948cc4f408f

Еще никто не оставлял запись к записи скачать торрент Tokio - Triangles - 2000, APE . Будь первым!

!Обратная связь