Скачать через торрент музыку Zodiac - A Bit Of Devil - 2012, бесплатно без регистрации torrent

Если у вас наблюдаются проблемы со скриншотами, переходом по ссылками, скачиванием торрентов - проблемы в блокировщике рекламы AdBlock. #хорошегоДня!


Статистика раздачи
Размер:  337 MB   |    Зарегистрирован:  4 года 11 месяцев   |    .torrent скачан:  9 раз   |   
Раздают:  1  
   
Загрузка...
 
Автор Сообщение

Galfimbul

avatar Galfimbul


Zodiac - A Bit Of Devil

Жанр: Rock
Год издания: 2012
Аудиокодек: APE (*.ape)
Тип рипа: image+.cue
Битрейт аудио: lossless
Продолжительность: 48:13
Источник (релизер): Свой диск
Наличие сканов в содержимом раздачи: да
Треклист:
01. A Bit Of Devil [0:04:37.65]
02. Carnival [0:05:12.16]
03. Blue Jean Blues [0:06:48.69]
04. Horrorvision [0:04:54.09]
05. Assembly Line [0:06:52.61]
06. Thunder [0:04:45.93]
07. Diamond Shoes [0:04:52.16]
08. Coming Home [0:10:09.61]
Exact Audio Copy V0.99 prebeta 4 from 23. January 2008

Отчёт EAC об извлечении, выполненном 2. сентября 2012, 14:37

Zodiac / A Bit Of Devil

Дисковод: Optiarc DVD RW AD-7173A Adapter: 0 ID: 1

Режим чтения : ДостоверностьИспользование точного потока : ДаОтключение кэша аудио : ДаИспользование указателей C2 : Нет

Коррекция смещения при чтении : 48Способность читать области Lead-in и Lead-out : НетЗаполнение пропущенных сэмплов тишиной : ДаУдаление блоков с тишиной в начале и конце : НетПри вычислениях CRC использовались нулевые сэмплы : ДаИнтерфейс : Встроенный Win32-интерфейс для Win NT/2000

Выходной формат : Внутренние WAV-операцииФормат сэмплов : 44.100 Гц; 16 бит; стерео

TOC извлечённого CD

Трек | Старт | Длительность | Начальный сектор | Конечный сектор --------------------------------------------------------------------- 1 | 0:00.00 | 4:37.49 | 0 | 20823 2 | 4:37.49 | 5:12.12 | 20824 | 44235 3 | 9:49.61 | 6:48.52 | 44236 | 74887 4 | 16:38.38 | 4:54.07 | 74888 | 96944 5 | 21:32.45 | 6:52.46 | 96945 | 127890 6 | 28:25.16 | 4:45.70 | 127891 | 149335 7 | 33:11.11 | 4:52.12 | 149336 | 171247 8 | 38:03.23 | 10:09.46 | 171248 | 216968

Характеристики диапазона извлечения и сообщения об ошибках

Выбранный диапазон

Имя файла D:\КОЛЛЕКЦИЯ\Новая папка (4)\Zodiac - A Bit Of Devil.wav

Пиковый уровень 96.8 % Качество диапазона 100.0 % CRC теста A6D86985 CRC копии A6D86985 Копирование... OK

Ошибок не произошло

AccurateRip: сводка

Трек 1 нет в базе данныхТрек 2 нет в базе данныхТрек 3 нет в базе данныхТрек 4 нет в базе данныхТрек 5 нет в базе данныхТрек 6 нет в базе данныхТрек 7 нет в базе данныхТрек 8 нет в базе данных

Ни одного трека нет в базе AccurateRip

Конец отчёта


Трекер:  [ 04-Сен-2012 16:15 ]

  

Скачать .torrent

Размер .torrent файла 14 KB


Размер: 337 MB
Хэш (hash) релиза: 60abcda6579db584b91cb36c5fe64fa50cb40843

Торренты, похожие на Zodiac - A Bit Of Devil - 2012, скачать торрент

Форум Название Автор Размер S L Добавлен
Зарубежный Rock ·· (Hard Rock / Blues-Rock / Southern) Zodiac - A Bit Of Devil - 2012, MP3 (tracks), 320 kbps Galfimbul 121333322116 MB 0 0 1346956620

21:37

6-Сен-12

Rосk | Mеtаl | Аltеrnаtivе, Рunk, Indереndеnt (mр3) ·· (Hard Rock) Zodiac - A Bit of Devil - 2012, MP3, 243-265 kbps VBR Galfimbul 9253835588 MB 0 0 1339518360

19:26

12-Июн-12

Еще никто не оставлял запись к записи скачать торрент Zodiac - A Bit Of Devil - 2012, . Будь первым!

!Обратная связь