Скачать через торрент музыку Banane Metalik - Requiem De La Depravation - 1994, FLAC бесплатно без регистрации torrent

Если у вас наблюдаются проблемы со скриншотами, переходом по ссылками, скачиванием торрентов - проблемы в блокировщике рекламы AdBlock. #хорошегоДня!


Статистика раздачи
Размер:  236 MB   |    Зарегистрирован:  4 года 11 месяцев   |    .torrent скачан:  11 раз   |   
Раздают:  1  
   
Загрузка...
 
Автор Сообщение

Galfimbul

avatar Galfimbul


Banane Metalik - Requiem De La Depravation

Жанр: aggressive psychobilly
Год выпуска диска: 1994
Производитель диска: Франция, Banana Juice Production
Аудио кодек: FLAC
Тип рипа: tracks+.cue
Битрейт аудио: lossless
Продолжительность: 34:56
Трэклист:
1. Bananajuice
2. Zombie
3. Rock'n'Shoot
4. Satan's Bed
5. Marche Macabre
6. Etat Sauvage
7. Requiem De La Depravation
8. Psychopathe
9. Festin De Sand
10. L'lmmaculee Erection
11. Fils De Satan
12. Killer Bananas
Доп. информация:
Exact Audio Copy V0.99 prebeta 5 from 4. May 2009

EAC extraction logfile from 7. September 2009, 22:16

Banane Metalik / Requiem De La Depravation

Used drive : PIONEER DVD-RW DVR-110D Adapter: 0 ID: 0

Read mode : Secure
Utilize accurate stream : Yes
Defeat audio cache : Yes
Make use of C2 pointers : No

Read offset correction : 48
Overread into Lead-In and Lead-Out : No
Fill up missing offset samples with silence : Yes
Delete leading and trailing silent blocks : No
Null samples used in CRC calculations : Yes
Used interface : Installed external ASPI interface
Gap handling : Left out

Used output format : User Defined Encoder
Selected bitrate : 128 kBit/s
Quality : High
Add ID3 tag : No
Command line compressor : C:\Program Files\Exact Audio Copy\FLAC\FLAC.EXE
Additional command line options : -8 -V -T "ARTIST=%a" -T "TITLE=%t" -T "ALBUM=%g" -T "DATE=%y" -T "TRACKNUMBER=%n" -T "GENRE=%m" -T "COMMENT=EAC FLAC -8" %s

TOC of the extracted CD

Track | Start | Length | Start sector | End sector
---------------------------------------------------------
1 | 0:00.00 | 2:21.22 | 0 | 10596
2 | 2:21.22 | 3:05.50 | 10597 | 24521
3 | 5:26.72 | 2:08.13 | 24522 | 34134
4 | 7:35.10 | 4:09.67 | 34135 | 52876
5 | 11:45.02 | 1:49.60 | 52877 | 61111
6 | 13:34.62 | 2:14.48 | 61112 | 71209
7 | 15:49.35 | 3:43.32 | 71210 | 87966
8 | 19:32.67 | 3:21.53 | 87967 | 103094
9 | 22:54.45 | 2:46.72 | 103095 | 115616
10 | 25:41.42 | 2:49.25 | 115617 | 128316
11 | 28:30.67 | 3:33.08 | 128317 | 144299
12 | 32:04.00 | 2:52.00 | 144300 | 157199

Track 1

Filename D:\-=MUSIC=-\Banane Metalik - Requiem De La Depravation\01 - Banane Metalik - Bananajuice.wav

Pre-gap length 0:00:02.00

Peak level 72.3 %
Track quality 100.0 %
Test CRC CD24B0D1
Copy CRC CD24B0D1
Copy OK

Track 2

Filename D:\-=MUSIC=-\Banane Metalik - Requiem De La Depravation\02 - Banane Metalik - Zombie.wav

Peak level 62.4 %
Track quality 100.0 %
Test CRC 82E1F99A
Copy CRC 82E1F99A
Copy OK

Track 3

Filename D:\-=MUSIC=-\Banane Metalik - Requiem De La Depravation\03 - Banane Metalik - Rock 'n' Shoot.wav

Peak level 71.9 %
Track quality 99.9 %
Test CRC 6063D8EC
Copy CRC 6063D8EC
Copy OK

Track 4

Filename D:\-=MUSIC=-\Banane Metalik - Requiem De La Depravation\04 - Banane Metalik - Satan's Bed.wav

Peak level 76.3 %
Track quality 100.0 %
Test CRC DD078503
Copy CRC DD078503
Copy OK

Track 5

Filename D:\-=MUSIC=-\Banane Metalik - Requiem De La Depravation\05 - Banane Metalik - Marche Macabre.wav

Peak level 77.2 %
Track quality 100.0 %
Test CRC 905C3DA4
Copy CRC 905C3DA4
Copy OK

Track 6

Filename D:\-=MUSIC=-\Banane Metalik - Requiem De La Depravation\06 - Banane Metalik - Etat Sauvage.wav

Peak level 81.5 %
Track quality 100.0 %
Test CRC D15A05B8
Copy CRC D15A05B8
Copy OK

Track 7

Filename D:\-=MUSIC=-\Banane Metalik - Requiem De La Depravation\07 - Banane Metalik - Requiem De La Depravation.wav

Peak level 75.8 %
Track quality 100.0 %
Test CRC 6CE77FAE
Copy CRC 6CE77FAE
Copy OK

Track 8

Filename D:\-=MUSIC=-\Banane Metalik - Requiem De La Depravation\08 - Banane Metalik - Psychopathe.wav

Peak level 73.6 %
Track quality 100.0 %
Test CRC 0F2BFD05
Copy CRC 0F2BFD05
Copy OK

Track 9

Filename D:\-=MUSIC=-\Banane Metalik - Requiem De La Depravation\09 - Banane Metalik - festim De Sang.wav

Peak level 74.5 %
Track quality 100.0 %
Test CRC 6BC80B6D
Copy CRC 6BC80B6D
Copy OK

Track 10

Filename D:\-=MUSIC=-\Banane Metalik - Requiem De La Depravation\10 - Banane Metalik - L'Immaculee Erection.wav

Peak level 73.7 %
Track quality 99.9 %
Test CRC 21E9F054
Copy CRC 21E9F054
Copy OK

Track 11

Filename D:\-=MUSIC=-\Banane Metalik - Requiem De La Depravation\11 - Banane Metalik - Fils De satan.wav

Peak level 69.5 %
Track quality 100.0 %
Test CRC F2D38537
Copy CRC F2D38537
Copy OK

Track 12

Filename D:\-=MUSIC=-\Banane Metalik - Requiem De La Depravation\12 - Banane Metalik - Killer Bananas.wav

Peak level 81.4 %
Track quality 99.9 %
Test CRC 2B9DD498
Copy CRC 2B9DD498
Copy OK

No errors occurred

End of status report

------------------------------------------------------------

Exact Audio Copy V0.99 prebeta 5 from 4. May 2009

EAC extraction logfile from 7. September 2009, 23:19

Banane Metalik / Requiem De La Depravation

Used drive : PIONEER DVD-RW DVR-110D Adapter: 0 ID: 0

Read mode : Secure
Utilize accurate stream : Yes
Defeat audio cache : Yes
Make use of C2 pointers : No

Read offset correction : 48
Overread into Lead-In and Lead-Out : No
Fill up missing offset samples with silence : Yes
Delete leading and trailing silent blocks : No
Null samples used in CRC calculations : Yes
Used interface : Installed external ASPI interface
Gap handling : Appended to previous track

Used output format : User Defined Encoder
Selected bitrate : 128 kBit/s
Quality : High
Add ID3 tag : No
Command line compressor : C:\Program Files\Exact Audio Copy\FLAC\FLAC.EXE
Additional command line options : -8 -V -T "ARTIST=%a" -T "TITLE=%t" -T "ALBUM=%g" -T "DATE=%y" -T "TRACKNUMBER=%n" -T "GENRE=%m" -T "COMMENT=EAC FLAC -8" %s

TOC of the extracted CD

Track | Start | Length | Start sector | End sector
---------------------------------------------------------
1 | 0:00.00 | 2:21.22 | 0 | 10596
2 | 2:21.22 | 3:05.50 | 10597 | 24521
3 | 5:26.72 | 2:08.13 | 24522 | 34134
4 | 7:35.10 | 4:09.67 | 34135 | 52876
5 | 11:45.02 | 1:49.60 | 52877 | 61111
6 | 13:34.62 | 2:14.48 | 61112 | 71209
7 | 15:49.35 | 3:43.32 | 71210 | 87966
8 | 19:32.67 | 3:21.53 | 87967 | 103094
9 | 22:54.45 | 2:46.72 | 103095 | 115616
10 | 25:41.42 | 2:49.25 | 115617 | 128316
11 | 28:30.67 | 3:33.08 | 128317 | 144299
12 | 32:04.00 | 2:52.00 | 144300 | 157199

Track 1

Filename D:\-=MUSIC=-\Banane Metalik - Requiem De La Depravation\01 - Banane Metalik - Bananajuice.wav

Pre-gap length 0:00:02.00

Peak level 72.3 %
Track quality 100.0 %
Test CRC CD24B0D1
Copy CRC CD24B0D1
Copy OK

Track 2

Filename D:\-=MUSIC=-\Banane Metalik - Requiem De La Depravation\02 - Banane Metalik - Zombie.wav

Peak level 62.4 %
Track quality 100.0 %
Test CRC 82E1F99A
Copy CRC 82E1F99A
Copy OK

Track 3

Filename D:\-=MUSIC=-\Banane Metalik - Requiem De La Depravation\03 - Banane Metalik - Rock 'n' Shoot.wav

Peak level 71.9 %
Track quality 99.9 %
Test CRC 6063D8EC
Copy CRC 6063D8EC
Copy OK

Track 4

Filename D:\-=MUSIC=-\Banane Metalik - Requiem De La Depravation\04 - Banane Metalik - Satan's Bed.wav

Peak level 76.3 %
Track quality 100.0 %
Test CRC DD078503
Copy CRC DD078503
Copy OK

Track 5

Filename D:\-=MUSIC=-\Banane Metalik - Requiem De La Depravation\05 - Banane Metalik - Marche Macabre.wav

Peak level 77.2 %
Track quality 100.0 %
Test CRC 905C3DA4
Copy CRC 905C3DA4
Copy OK

Track 6

Filename D:\-=MUSIC=-\Banane Metalik - Requiem De La Depravation\06 - Banane Metalik - Etat Sauvage.wav

Peak level 81.5 %
Track quality 100.0 %
Test CRC D15A05B8
Copy CRC D15A05B8
Copy OK

Track 7

Filename D:\-=MUSIC=-\Banane Metalik - Requiem De La Depravation\07 - Banane Metalik - Requiem De La Depravation.wav

Peak level 75.8 %
Track quality 100.0 %
Test CRC 6CE77FAE
Copy CRC 6CE77FAE
Copy OK

Track 8

Filename D:\-=MUSIC=-\Banane Metalik - Requiem De La Depravation\08 - Banane Metalik - Psychopathe.wav

Peak level 73.6 %
Track quality 100.0 %
Test CRC 0F2BFD05
Copy CRC 0F2BFD05
Copy OK

Track 9

Filename D:\-=MUSIC=-\Banane Metalik - Requiem De La Depravation\09 - Banane Metalik - festim De Sang.wav

Peak level 74.5 %
Track quality 100.0 %
Test CRC 6BC80B6D
Copy CRC 6BC80B6D
Copy OK

Track 10

Filename D:\-=MUSIC=-\Banane Metalik - Requiem De La Depravation\10 - Banane Metalik - L'Immaculee Erection.wav

Peak level 73.7 %
Track quality 99.9 %
Test CRC 21E9F054
Copy CRC 21E9F054
Copy OK

Track 11

Filename D:\-=MUSIC=-\Banane Metalik - Requiem De La Depravation\11 - Banane Metalik - Fils De satan.wav

Peak level 69.5 %
Track quality 100.0 %
Test CRC F2D38537
Copy CRC F2D38537
Copy OK

Track 12

Filename D:\-=MUSIC=-\Banane Metalik - Requiem De La Depravation\12 - Banane Metalik - Killer Bananas.wav

Peak level 81.4 %
Track quality 99.9 %
Test CRC 2B9DD498
Copy CRC 2B9DD498
Copy OK

No errors occurred

End of status report
AUDIOCHECKER v2.0 beta (build 457) - by Dester - <a href="mailto:opdester@freemail.hu" class="postLink">opdester@freemail.hu</a>
~~~~~~~~~~~~~~~~~~~~~~~~~~~~~~~~~~
-=== DO NOT EDIT THIS FILE! ===-

Path: ...\Banane Metalik - Requiem De La Depravation

01 -=- 01 - Banane Metalik - Bananajuice.flac -=- CDDA (100%)
02 -=- 02 - Banane Metalik - Zombie.flac -=- CDDA (100%)
03 -=- 03 - Banane Metalik - Rock 'n' Shoot.flac -=- CDDA (100%)
04 -=- 04 - Banane Metalik - Satan's Bed.flac -=- CDDA (100%)
05 -=- 05 - Banane Metalik - Marche Macabre.flac -=- CDDA (100%)
06 -=- 06 - Banane Metalik - Etat Sauvage.flac -=- CDDA (100%)
07 -=- 07 - Banane Metalik - Requiem De La Depravation.flac -=- CDDA (100%)
08 -=- 08 - Banane Metalik - Psychopathe.flac -=- CDDA (100%)
09 -=- 09 - Banane Metalik - festim De Sang.flac -=- CDDA (100%)
10 -=- 10 - Banane Metalik - L'Immaculee Erection.flac -=- CDDA (100%)
11 -=- 11 - Banane Metalik - Fils De satan.flac -=- CDDA (100%)
12 -=- 12 - Banane Metalik - Killer Bananas.flac -=- CDDA (100%)

Summary 100,00% CDDA

197473252


Трекер:  [ 04-Сен-2012 16:15 ]

  

Скачать .torrent

Размер .torrent файла 19 KB


Размер: 236 MB
Хэш (hash) релиза: 76584bd5c8af1472880c796954091de0de14c299

Еще никто не оставлял запись к записи скачать торрент Banane Metalik - Requiem De La Depravation - 1994, FLAC . Будь первым!

!Обратная связь