Скачать через торрент музыку Phil Vincent - No Turning Back - 1998, APE бесплатно без регистрации torrent

Если у вас наблюдаются проблемы со скриншотами, переходом по ссылками, скачиванием торрентов - проблемы в блокировщике рекламы AdBlock. #хорошегоДня!


Статистика раздачи
Размер:  457 MB   |    Зарегистрирован:  5 лет 2 месяца   |    .torrent скачан:  8 раз   |   
Раздают:  1  
   
Загрузка...
 
Автор Сообщение

Galfimbul

avatar Galfimbul


Phil Vincent - No Turning Back

Жанр: Hard Rock
Год выпуска диска: 1998
Производитель диска: USA
Аудио кодек: APE
Тип рипа: image+.cue
Битрейт аудио: lossless
Продолжительность: 1:02:18

Трэклист:

01. Between here and there [0:05:14.69]
02. Alone [0:05:43.44]
03. Missing you [0:05:14.38]
04. She [0:05:43.70]
05. Outcast [0:06:53.69]
06. Game of fools [0:05:36.00]
07. Code [0:04:08.32]
08. Blink of an eye [0:05:22.02]
09. No turning back [0:04:23.09]
10. Chasing shadows [0:04:30.45]
11. Never enough [0:05:05.01]
12. Undone [0:04:22.26]

Доп. информация:

Phil Vincent: All vocals, guitars, bass, keyboards & drums
Timm Myers: drums on No turning back
Exact Audio Copy V0.99 prebeta 4 from 23. January 2008

Отчёт EAC об извлечении, выполненном 30. июня 2010, 20:00

Phil Vincent / No Turning Back

Дисковод: Optiarc DVD RW AD-7173S Adapter: 2 ID: 0

Режим чтения : ДостоверностьИспользование точного потока : ДаОтключение кэша аудио : ДаИспользование указателей C2 : Нет

Коррекция смещения при чтении : 48Способность читать области Lead-in и Lead-out : НетЗаполнение пропущенных сэмплов тишиной : ДаУдаление блоков с тишиной в начале и конце : НетПри вычислениях CRC использовались нулевые сэмплы : ДаИнтерфейс : Встроенный Win32-интерфейс для Win NT/2000

Выходной формат : Monkey's Audio (без потерь)Выбранный битрейт : Normal Lossless CompressionКачество : ВысокийДобавление ID3-тэга : ДаУтилита сжатия : C:\Program Files\Monkey's Audio\MAC.exe

TOC извлечённого CD

Трек | Старт | Длительность | Начальный сектор | Конечный сектор --------------------------------------------------------------------- 1 | 0:00.00 | 5:14.69 | 0 | 23618 2 | 5:14.69 | 5:43.44 | 23619 | 49387 3 | 10:58.38 | 5:14.38 | 49388 | 72975 4 | 16:13.01 | 5:43.70 | 72976 | 98770 5 | 21:56.71 | 6:53.69 | 98771 | 129814 6 | 28:50.65 | 5:36.00 | 129815 | 155014 7 | 34:26.65 | 4:08.32 | 155015 | 173646 8 | 38:35.22 | 5:22.02 | 173647 | 197798 9 | 43:57.24 | 4:23.09 | 197799 | 217532 10 | 48:20.33 | 4:30.45 | 217533 | 237827 11 | 52:51.03 | 5:05.01 | 237828 | 260703 12 | 57:56.04 | 4:22.26 | 260704 | 280379

Характеристики диапазона извлечения и сообщения об ошибках

Выбранный диапазон

Имя файла D:\Music\Phil Vincent - No Turning Back 1998\Phil Vincent - No Turning Back.wav

Пиковый уровень 100.0 % Качество диапазона 99.9 % CRC копии A3D64394 Копирование... OK

Ошибок не произошло

Конец отчёта
Cобственный рип с оригинального диска.
author: William Arnold

If you put Dokken,Pink Floyd,Journey,Survivor & the Beatles in a room together, this is what they would come up with.

Brilliant melodic hard rock!!
http://www.philvincent.com/

http://www.myspace.com/philvincentrox

Трекер:  [ 04-Сен-2012 16:15 ]

  

Скачать .torrent

Размер .torrent файла 19 KB


Размер: 457 MB
Хэш (hash) релиза: cead27c61c8f7a2b54903eb0205a80216dd32c22

Еще никто не оставлял запись к записи скачать торрент Phil Vincent - No Turning Back - 1998, APE . Будь первым!

!Обратная связь