Скачать через торрент Пылающий Экзамен на Чуунина! Наруто против Конохамару! Honoo no Chuunin Shiken! Naruto vs Konohamaru!! бесплатно Аниме Все серии на русском torrent

Если у вас наблюдаются проблемы со скриншотами, переходом по ссылками, скачиванием торрентов - проблемы в блокировщике рекламы AdBlock. #хорошегоДня!


Статистика раздачи
Размер:  618 MB   |    Зарегистрирован:  4 года 11 месяцев   |    .torrent скачан:  59 раз   |   
Раздают:  1  
   
Загрузка...
 
Автор Сообщение

Polarnik

avatar Polarnik


Пылающий Экзамен на Чуунина! Наруто против Конохамару! / Honoo no Chuunin Shiken! Naruto vs Konohamaru!!
炎の中忍試験! ナルトvs木ノ葉丸!!
Страна: Япония
Год выпуска: 2011 г.
Жанр: приключения, комедия, боевые искусства, сёнэн
Тип: короткометражный фильм, 15 мин.
Описание: Начался второй экзамен на чунина и это отличный шанс для Наруто распрощаться со званием генина. Но Конохомару, который мечтает стать Хокаге и не хочет отставать от Наруто, может в этом ему помешать.
Качество: BDRip 720p [SOFCJ-Raws]
Сэмпл: Скачать
Тип релиза: Без хардсаба
Формат видео: MKV
Совместимость с бытовыми плеерами: Нет
Видео: MPEG4 Video (H264) 1280x720 25fps 3 683 Kbps
Аудио:
Japanese, DTS 48000Hz 6ch 2 377 Kbps
Russian, MP3, 128 kbps, 44.1 KHz, 2 ch [Rain.Death]
Субтитры:
Russian, встроенные [Firegorn Team]
Russian, встроенные [Faktoreal, Stan WarHammer, FixeR]
French, встроенные [PGS from BD]
Japanese, встроенные [DVD]
English, встроенные [Hatsuyuki-Fansub]

Format : MatroskaFormat version : Version 2File size : 618 MiBDuration : 13mn 40sOverall bit rate mode : VariableOverall bit rate : 6 313 KbpsMovie name : [SOFCJ-Raws] Honoo no Chuunin Shiken! Naruto vs Konohamaru! [BD 720p]Encoded date : UTC 2012-09-02 09:31:17Writing application : mkvmerge v5.7.0 ('The Whirlwind') built on Jul 8 2012 20:08:51Writing library : libebml v1.2.3 + libmatroska v1.3.0

VideoID : 1Format : AVCFormat/Info : Advanced Video CodecFormat profile : <a href="mailto:High@L4.1Format" class="postLink">High@L4.1Format</a> settings, CABAC : YesFormat settings, ReFrames : 6 framesMuxing mode : Header strippingCodec ID : V_MPEG4/ISO/AVCDuration : 13mn 40sBit rate : 3 683 KbpsWidth : 1 280 pixelsHeight : 720 pixelsDisplay aspect ratio : 16:9Frame rate : 25.000 fpsColor space : YUVChroma subsampling : 4:2:0Bit depth : 8 bitsScan type : ProgressiveBits/(Pixel*Frame) : 0.160Stream size : 360 MiB (58%)Writing library : x264 core 125 r2200 999b753Encoding settings : cabac=1 / ref=6 / deblock=1:1:1 / analyse=0x3:0x113 / me=umh / subme=7 / psy=1 / psy_rd=0.40:0.00 / mixed_ref=1 / me_range=24 / chroma_me=1 / trellis=2 / 8x8dct=1 / cqm=0 / deadzone=21,11 / fast_pskip=0 / chroma_qp_offset=-2 / threads=3 / lookahead_threads=1 / sliced_threads=0 / nr=0 / decimate=1 / interlaced=0 / bluray_compat=0 / constrained_intra=0 / bframes=4 / b_pyramid=2 / b_adapt=2 / b_bias=0 / direct=3 / weightb=1 / open_gop=0 / weightp=2 / keyint=250 / keyint_min=25 / scenecut=40 / intra_refresh=0 / rc_lookahead=60 / rc=crf / mbtree=1 / crf=17.0 / qcomp=0.60 / qpmin=0 / qpmax=69 / qpstep=4 / vbv_maxrate=50000 / vbv_bufsize=50000 / crf_max=0.0 / nal_hrd=none / ip_ratio=1.40 / aq=1:0.60Default : YesForced : No

Audio #1ID : 2Format : DTSFormat/Info : Digital Theater SystemsFormat profile : MA / CoreMuxing mode : Header strippingCodec ID : A_DTSDuration : 13mn 40sBit rate mode : VariableBit rate : 2 377 Kbps / 1 510 KbpsChannel(s) : 6 channelsChannel positions : Front: L C R, Side: L R, LFESampling rate : 48.0 KHzBit depth : 24 bitsCompression mode : Lossless / LossyLanguage : JapaneseDefault : YesForced : No

Audio #2ID : 8Format : MPEG AudioFormat version : Version 1Format profile : Layer 3Mode : Joint stereoMode extension : MS StereoMuxing mode : Header strippingCodec ID : A_MPEG/L3Codec ID/Hint : MP3Duration : 13mn 40sBit rate mode : ConstantBit rate : 128 KbpsChannel(s) : 2 channelsSampling rate : 44.1 KHzCompression mode : LossyDelay relative to video : 1s 0msStream size : 12.5 MiB (2%)Title : [Rain.Death]Language : RussianDefault : NoForced : No

Text #1ID : 3Format : PGSMuxing mode : zlibCodec ID : S_HDMV/PGSCodec ID/Info : The same subtitle format used on BDs/HD-DVDsLanguage : FrenchDefault : NoForced : No

Text #2ID : 4Format : ASSCodec ID : S_TEXT/ASSCodec ID/Info : Advanced Sub Station AlphaCompression mode : LosslessTitle : [Faktoreal, Stan WarHammer, FixeR]Language : RussianDefault : NoForced : No

Text #3ID : 5Format : VobSubMuxing mode : zlibCodec ID : S_VOBSUBCodec ID/Info : The same subtitle format used on DVDsTitle : DVDLanguage : JapaneseDefault : NoForced : No

Text #4ID : 6Format : ASSCodec ID : S_TEXT/ASSCodec ID/Info : Advanced Sub Station AlphaCompression mode : LosslessTitle : Firegorn TeamLanguage : RussianDefault : YesForced : Yes

Text #5ID : 7Format : ASSCodec ID : S_TEXT/ASSCodec ID/Info : Advanced Sub Station AlphaCompression mode : LosslessTitle : Hatsuyuki-FansubLanguage : EnglishDefault : NoForced : No

Menu00:00:00.000 : en:Chapter 0100:04:00.523 : en:Chapter 0200:09:03.576 : en:Chapter 03


Трекер:  [ 03-Сен-2012 07:54 ]

  

Скачать .torrent

Размер .torrent файла 12 KB


Размер: 618 MB
Хэш (hash) релиза: d3eafbbf224ec733f5cee8be3b815a43124493c2
Подписка на обновления:

Еще никто не оставлял запись к записи скачать торрент Пылающий Экзамен на Чуунина! Наруто против Конохамару! Honoo no Chuunin Shiken! Naruto vs Konohamaru!! . Будь первым!

!Обратная связь