Скачать через торрент музыку Sea Hags Sea Hags бесплатно без регистрации torrent

Если у вас наблюдаются проблемы со скриншотами, переходом по ссылками, скачиванием торрентов - проблемы в блокировщике рекламы AdBlock. #хорошегоДня!


Статистика раздачи
Размер:  283 MB   |    Зарегистрирован:  4 года 11 месяцев   |    .torrent скачан:  10 раз   |   
Раздают:  1  
   
Загрузка...
 
Автор Сообщение

Galfimbul

avatar Galfimbul


Sea Hags - Sea Hags

Жанр: Glam Rock/Hard Rock
Страна: США
Год выхода альбома: 1989
Год выпуска диска: 1989
Формат: FLAC (image+.cue)
Битрейт аудио: lossless
Производитель диска: Япония
Продолжительность: 40:56
Источник (релизер): Собственный рип
Наличие сканов в содержимом раздачи: да

Треклист:
1. Half the Way Valley (03:03)
2. Doghouse (04:30)
3. Too Much T-Bone (03:11)
4. Someday (05:11)
5. Back to the Grind (04:20)
6. Bunkbed Creek (02:32)
7. In the Mood for Love (03:08)
8. Miss Fortune (04:27)
9. All the Time (03:43)
10. Three's a Charm (02:43)
11. Under the Night Stars (04:09)

Доп. информация:
Лейбл: CHRYSALIS/EMI
Номер по каталогу: CP32-5912
Матрица: CP32-5912 1A1 TO (TOSHIBA)
Exact Audio Copy V1.0 beta 3 from 29. August 2011

Отчёт EAC об извлечении, выполненном 23. июля 2012, 17:10

Sea Hags / Sea Hags [CP32-5912]

Дисковод: Optiarc DVD RW AD-7200A Adapter: 0 ID: 0

Режим чтения : Достоверность
Использование точного потока : Да
Отключение кэша аудио : Да
Использование указателей C2 : Нет

Коррекция смещения при чтении : 48
Способность читать области Lead-in и Lead-out : Нет
Заполнение пропущенных сэмплов тишиной : Да
Удаление блоков с тишиной в начале и конце : Нет
При вычислениях CRC использовались нулевые сэмплы : Да
Интерфейс : Встроенный Win32-интерфейс для Win NT/2000

Выходной формат : Пользовательский кодировщик
Выбранный битрейт : 32 kBit/s
Качество : Высокий
Добавление ID3-тега : Нет
Утилита сжатия : C:\Program Files\Exact Audio Copy\Flac\flac.exe
Дополнительные параметры : -V -8 -T "Date=%year%" -T "Genre=%genre%" %source%

TOC извлечённого CD

Трек | Старт | Длительность | Начальный сектор | Конечный сектор
---------------------------------------------------------------------
1 | 0:00.00 | 3:02.72 | 0 | 13721
2 | 3:02.72 | 4:30.00 | 13722 | 33971
3 | 7:32.72 | 3:10.63 | 33972 | 48284
4 | 10:43.60 | 5:10.40 | 48285 | 71574
5 | 15:54.25 | 4:19.52 | 71575 | 91051
6 | 20:14.02 | 2:32.05 | 91052 | 102456
7 | 22:46.07 | 3:08.05 | 102457 | 116561
8 | 25:54.12 | 4:26.58 | 116562 | 136569
9 | 30:20.70 | 3:43.17 | 136570 | 153311
10 | 34:04.12 | 2:43.05 | 153312 | 165541
11 | 36:47.17 | 4:08.60 | 165542 | 184201

Характеристики диапазона извлечения и сообщения об ошибках

Выбранный диапазон

Имя файла Y:\Music\Sea Hags\1989 Sea Hags\Sea Hags - Sea Hags [CP32-5912].wav

Пиковый уровень 83.7 %
Скорость извлечения 3.3 X
Качество диапазона 99.9 %
CRC теста F3E28B8F
CRC копии F3D51570
Копирование... OK

Ошибок не произошло

AccurateRip: сводка

Трек 1 отсутствует в базе данных
Трек 2 отсутствует в базе данных
Трек 3 отсутствует в базе данных
Трек 4 отсутствует в базе данных
Трек 5 отсутствует в базе данных
Трек 6 отсутствует в базе данных
Трек 7 отсутствует в базе данных
Трек 8 отсутствует в базе данных
Трек 9 отсутствует в базе данных
Трек 10 отсутствует в базе данных
Трек 11 отсутствует в базе данных

Ни одного трека нет в базе AccurateRip

Конец отчёта
REM GENRE "Hard Rock"REM DATE 1989REM DISCID 9209980BREM COMMENT "ExactAudioCopy v1.0b3"PERFORMER "Sea Hags"TITLE "Sea Hags [CP32-5912]"FILE "Sea Hags - Sea Hags [CP32-5912].flac" WAVE TRACK 01 AUDIO TITLE "Half The Way Valley" PERFORMER "Sea Hags" INDEX 01 00:00:00 TRACK 02 AUDIO TITLE "Doghouse" PERFORMER "Sea Hags" INDEX 00 03:00:72 INDEX 01 03:02:72 TRACK 03 AUDIO TITLE "Too Much T-Bone" PERFORMER "Sea Hags" INDEX 01 07:32:72 TRACK 04 AUDIO TITLE "Someday" PERFORMER "Sea Hags" INDEX 00 10:43:17 INDEX 01 10:43:60 TRACK 05 AUDIO TITLE "Back To The Grind" PERFORMER "Sea Hags" INDEX 00 15:53:72 INDEX 01 15:54:25 TRACK 06 AUDIO TITLE "Bunkbed Creek" PERFORMER "Sea Hags" INDEX 00 20:12:37 INDEX 01 20:14:02 TRACK 07 AUDIO TITLE "In The Mood For Love" PERFORMER "Sea Hags" INDEX 01 22:46:07 TRACK 08 AUDIO TITLE "Miss Fortune" PERFORMER "Sea Hags" INDEX 01 25:54:12 TRACK 09 AUDIO TITLE "All The Time" PERFORMER "Sea Hags" INDEX 01 30:20:70 TRACK 10 AUDIO TITLE "Three's A Charm" PERFORMER "Sea Hags" INDEX 01 34:04:12 TRACK 11 AUDIO TITLE "Under The Night Stars" PERFORMER "Sea Hags" INDEX 01 36:47:17
Состав:
Ron Yocom - vocals, guitar
Frank Wilsey - guitar
Chris Schlosshardt - bass
Adam Maples - drums
Kevin Russell - guitar

Трекер:  [ 04-Сен-2012 16:14 ]

  

Скачать .torrent

Размер .torrent файла 12 KB


Размер: 283 MB
Хэш (hash) релиза: fc91a619c090097483e456589114630173a91d58

Еще никто не оставлял запись к записи скачать торрент Sea Hags Sea Hags . Будь первым!

!Обратная связь