Скачать через торрент музыку Robin George - Dangerous Music - 2010, APE бесплатно без регистрации torrent

Если у вас наблюдаются проблемы со скриншотами, переходом по ссылками, скачиванием торрентов - проблемы в блокировщике рекламы AdBlock. #хорошегоДня!


Статистика раздачи
Размер:  411 MB   |    Зарегистрирован:  5 лет 2 месяца   |    .torrent скачан:  12 раз   |   
Раздают:  1  
   
Загрузка...
 
Автор Сообщение

Galfimbul

avatar Galfimbul


Robin George / Dangerous Music

Жанр: Rock
Страна-производитель диска: UK
Год издания: 2010
Издатель (лейбл): Angel Air Records
Номер по каталогу: SJPCD344
Страна: UK
Аудиокодек: APE (*.ape)
Тип рипа: image+.cue
Битрейт аудио: lossless
Продолжительность: 01:00:53
Источник (релизер): kpnemo / London
Наличие сканов в содержимом раздачи: да

Треклист:

01. Heartline (Robin George)
02. Spy (Robin George)
03. No News Is Good News (Robin George/Pete Green)
04. French Kisses (Robin George)
05. Stolen From My Heart (Robin George/Pete Green)
06. Shout (Robin George/Pete Green)
07. Showdown (Robin George)
08. Hit List (Robin George/Pete Green)
09. Shoot On Sight (Robin George/Pete Green)
10. Don't Turn Away (Robin George)
11. Space Kadett (Robin George/Pete Green)

Bonus Tracks:

12. Heartline (2nd Version) (Robin George)
13. Spy (2nd Version) (Robin George)
14. No News Is Good News (2nd Version) (Robin George)
15. Heartline - Damgerous Mix (Robin George)
16. Don't Turn Away - Damgerous Mix (Robin George)
Exact Audio Copy V1.0 beta 3 from 29. August 2011

EAC extraction logfile from 31. August 2012, 16:50

Robin George / Dangerous Music

Used drive : Optiarc DVD RW AD-5280S Adapter: 1 ID: 0

Read mode : SecureUtilize accurate stream : YesDefeat audio cache : YesMake use of C2 pointers : No

Read offset correction : 48Overread into Lead-In and Lead-Out : NoFill up missing offset samples with silence : YesDelete leading and trailing silent blocks : NoNull samples used in CRC calculations : YesUsed interface : Native Win32 interface for Win NT & 2000

Used output format : Monkey's Audio Lossless EncoderSelected bitrate : High Lossless CompressionQuality : HighAdd ID3 tag : NoCommand line compressor : C:\Program Files\Monkey's Audio\MAC.exeAdditional command line options : -v

TOC of the extracted CD

Track | Start | Length | Start sector | End sector --------------------------------------------------------- 1 | 0:00.00 | 3:14.70 | 0 | 14619 2 | 3:14.70 | 3:53.54 | 14620 | 32148 3 | 7:08.49 | 3:25.09 | 32149 | 47532 4 | 10:33.58 | 3:57.68 | 47533 | 65375 5 | 14:31.51 | 4:22.71 | 65376 | 85096 6 | 18:54.47 | 3:30.33 | 85097 | 100879 7 | 22:25.05 | 3:10.27 | 100880 | 115156 8 | 25:35.32 | 3:21.46 | 115157 | 130277 9 | 28:57.03 | 3:23.02 | 130278 | 145504 10 | 32:20.05 | 3:57.42 | 145505 | 163321 11 | 36:17.47 | 3:31.12 | 163322 | 179158 12 | 39:48.59 | 3:26.19 | 179159 | 194627 13 | 43:15.03 | 4:15.04 | 194628 | 213756 14 | 47:30.07 | 3:04.10 | 213757 | 227566 15 | 50:34.17 | 5:27.19 | 227567 | 252110 16 | 56:01.36 | 4:51.22 | 252111 | 273957

Range status and errors

Selected range

Filename C:\Users\London\Desktop\Robin George - Dangerous Music.wav

Peak level 100.0 % Extraction speed 2.0 X Range quality 100.0 % Test CRC 5631EEB7 Copy CRC 5631EEB7 Copy OK

No errors occurred

AccurateRip summary

Track 1 not present in databaseTrack 2 not present in databaseTrack 3 not present in databaseTrack 4 not present in databaseTrack 5 not present in databaseTrack 6 not present in databaseTrack 7 not present in databaseTrack 8 not present in databaseTrack 9 not present in databaseTrack 10 not present in databaseTrack 11 not present in databaseTrack 12 not present in databaseTrack 13 not present in databaseTrack 14 not present in databaseTrack 15 not present in databaseTrack 16 not present in database

None of the tracks are present in the AccurateRip database

End of status report

==== Log checksum 46A40D6A2410286F254C313B120D8F242C277D5C1397D4492621899BEDEB6D15 ====
Дебютный сольный альбом Робина Джорджа 'Dangerous Music' (1985), в записи которого среди прочих музыкантов засветился сам Фил Лайнот (Phil Lynott) из Thin Lizzy.
Robin George в 80-х зарекомендовал себя как гитарист, продюсер, автор песен и соло артист. Он принимал участие в проекте The David Byron Band в тандеме с Дэвидом Байроном (David Byron) (ex-Uriah Heep) на записи альбома ‘On The Rocks’. Так же выступал на концертах с Рой Вудом (Roy Wood) (ex-ELO). В 2008 году Робин Джордж записал довольно не плохой альбом 'Sweet Revenge' с Глен Хьюзом (Glenn Hughes) (ex-Deep Purple), а в 2009 году с Крис Слейдом (Chris Slade) (ex-AC/DC, The Firm) и Пит Уэйем (Pete Way) (ex-UFO) создал группу Damage Control.
Robin George Bass, Guitar, Keyboards, Vocals
Phil Lynott Bass
Chris Thompson Vocals
Kex Gorin Percussion
Pete Green Percussion, Keyboards
Dave Holland Percussion, Drums
Adrian Lee Synthesizer, Bass
Pino Palladino Bass
Philip Soussan Bass
Mark Stanway Piano


Трекер:  [ 04-Сен-2012 16:14 ]

  

Скачать .torrent

Размер .torrent файла 17 KB


Размер: 411 MB
Хэш (hash) релиза: 3eda6f8513e97ea737b3a7d265830a0b87ab656b

Еще никто не оставлял запись к записи скачать торрент Robin George - Dangerous Music - 2010, APE . Будь первым!

!Обратная связь