Скачать через торрент музыку L.A. Guns - Wasted бесплатно без регистрации torrent

Если у вас наблюдаются проблемы со скриншотами, переходом по ссылками, скачиванием торрентов - проблемы в блокировщике рекламы AdBlock. #хорошегоДня!


Статистика раздачи
Размер:  214 MB   |    Зарегистрирован:  5 лет 2 месяца   |    .torrent скачан:  10 раз   |   
Раздают:  1  
   
Загрузка...
 
Автор Сообщение

Galfimbul

avatar Galfimbul


L.A. Guns / Wasted (EP)

Жанр: Hard rock, glam metal
Год издания: 1998
Издатель (лейбл): Standback
Номер по каталогу: MLSB 002
Страна: Los Angeles, California, US
Аудиокодек: FLAC (*.flac)
Тип рипа: tracks
Битрейт аудио: lossless
Продолжительность: 00:30:28
Источник (релизер): Internet
Наличие сканов в содержимом раздачи: да
Треклист:
01.Wasted (04_21)
02.Well Spent (04_06)
03.Heavy Head (05_12)
04.Forgiving Eyes (06_31)
05.Jayne '98 (05_05)
06.Cold Gin (05_13)
Exact Audio Copy V0.99 prebeta 4 from 23. January 2008

EAC extraction logfile from 3. August 2009, 20:00

L.A. GUNS / Wasted

Used drive : Optiarc DVD RW AD-7563A Adapter: 0 ID: 0

Read mode : SecureUtilize accurate stream : YesDefeat audio cache : YesMake use of C2 pointers : No

Read offset correction : 6Overread into Lead-In and Lead-Out : NoFill up missing offset samples with silence : YesDelete leading and trailing silent blocks : NoNull samples used in CRC calculations : YesUsed interface : Native Win32 interface for Win NT & 2000Gap handling : Appended to previous track

Used output format : User Defined EncoderSelected bitrate : 1024 kBit/sQuality : HighAdd ID3 tag : NoCommand line compressor : C:\Program Files (x86)\Exact Audio Copy\FLAC\FLAC.EXEAdditional command line options : -8 -T "artist=%a" -T "title=%t" -T "album=%g" -T "date=%y" -T "tracknumber=%n" -T "genre=%m" %s

TOC of the extracted CD

Track | Start | Length | Start sector | End sector --------------------------------------------------------- 1 | 0:00.00 | 4:21.00 | 0 | 19574 2 | 4:21.00 | 4:06.01 | 19575 | 38025 3 | 8:27.01 | 5:11.53 | 38026 | 61403 4 | 13:38.54 | 6:31.33 | 61404 | 90761 5 | 20:10.12 | 5:04.47 | 90762 | 113608 6 | 25:14.59 | 5:13.27 | 113609 | 137110

Track 1

Filename E:\eac\01 L.A. GUNS - Wasted.wav

Pre-gap length 0:00:02.00

Peak level 100.0 % Track quality 99.9 % Test CRC FD1AA887 Copy CRC FD1AA887 Accurately ripped (confidence 1) [0AFB5009] Copy OK

Track 2

Filename E:\eac\02 L.A. GUNS - Well Spent.wav

Pre-gap length 0:00:02.20

Peak level 100.0 % Track quality 100.0 % Test CRC A8BAC015 Copy CRC A8BAC015 Accurately ripped (confidence 1) [B7D9A2B1] Copy OK

Track 3

Filename E:\eac\03 L.A. GUNS - Heavy Head.wav

Pre-gap length 0:00:02.02

Peak level 100.0 % Track quality 100.0 % Test CRC 24DAD4E3 Copy CRC 24DAD4E3 Accurately ripped (confidence 1) [15D47638] Copy OK

Track 4

Filename E:\eac\04 L.A. GUNS - Forgiving Eyes.wav

Pre-gap length 0:00:03.04

Peak level 100.0 % Track quality 100.0 % Test CRC 779AD216 Copy CRC 779AD216 Accurately ripped (confidence 1) [1C7B5ECF] Copy OK

Track 5

Filename E:\eac\05 L.A. GUNS - Jayne '98.wav

Pre-gap length 0:00:02.00

Peak level 100.0 % Track quality 100.0 % Test CRC E0DA77E1 Copy CRC E0DA77E1 Accurately ripped (confidence 1) [786BBC03] Copy OK

Track 6

Filename E:\eac\06 L.A. GUNS - Cold Gin.wav

Pre-gap length 0:00:02.72

Peak level 77.6 % Track quality 99.8 % Test CRC E0F97B79 Copy CRC E0F97B79 Accurately ripped (confidence 1) [EA60FAF4] Copy OK

All tracks accurately ripped

No errors occurred

End of status report
-----------------------

DON'T MODIFY THIS FILE

-----------------------

PERFORMER: auCDtect Task Manager, ver. 1.5.1RC6 build 1.5.1.7Copyright (c) 2008-2010 y-soft. All rights reservedhttp://y-soft.org

ANALYZER: auCDtect: CD records authenticity detector, version 0.8.2Copyright (c) 2004 Oleg Berngardt. All rights reserved.Copyright (c) 2004 Alexander Djourik. All rights reserved.

FILE: Image.flac Size: 221049737 Hash: 8631B811F2237101A0BF229792173738 Accuracy: -m0 Conclusion: CDDA 100% Signature: A44BC4FDA98BE651FD44532308D70057C77C42C3
Доп. информация: Released September 15, 1998
Recorded Red Zone Studios Burbank, California
Producer Dennis Degher, L.A. Guns
L.A. Guns — американская хард-рок/глэм-метал группа, созданная в 1983 году в Лос-Анджелесе гитаристом Трэйси Ганзом. В 1985 году группа ненадолго распалась, после присоединения участников, включая и самого Ганза, к другой лос-анджелесской группе Hollywood Rose. Hollywood Rose вскоре превратилась в Guns N' Roses, и после нескольких концертов Трэйси её покинул. В том же году L.A. Guns были собраны вновь и помимо Трэйси в неё вошли вокалист Пол Блэк, басист Мик Крипс и барабанщик Ники Александер. В 1987 году Блэк был заменён бывшим вокалистом Girl и Tormé Филом Льюисом, Крипс перешёл на ритм-гитару, а место басиста занял бывший участник Faster Pussycat Келли Никелс. Позже Александер был заменён бывшим ударником W.A.S.P. Стивом Райли. Этот состав стал известен как «классический». Они достигли умеренного успеха в конце 80-х и начале 90-х годов. Однако, группа прошла через большое количество смен составов (Ганз оставался единственным постоянным участником), что не дало ей повторить и преумножить свой успех в дальнейшем.

В 1999 году произошло воссоединение «классического состава», и группа приступила к записи нового материала. Однако, смена участников продолжилась после того, как в 2002 году Ганз решил присоединиться к хард-роковой супергруппе Brides of Destruction. L.A. Guns решили продолжить без него, пригласив на место гитариста Стэйси Блэйдса. В 2006 году было принято решение о роспуске Brides of Destruction, и Ганз основал The Tracii Guns Band. Состав группы включал бывших участников L.A. Guns, таких как Блэка и Александера, также в него вошёл Джереми Ганз (позже их состав снова не раз изменялся) и группа решила сменить название на L.A. Guns. Обе группы продолжают выступать и записываться под названием L.A. Guns, попутно ведя судебные процессы по поводу права на название.

Последним, на сегодняшний день, альбомом L.A. Guns Фила Льюиса является кавер-альбом Covered in Guns, выпущенный в феврале 2010 года. Последней, на сегодняшний день, записью L.A. Guns Трэйси Ганза является переиздание альбома 1999 года Shrinking Violet с Джиззи Перлом на вокале, выпущенное в мае 2010 года. В 2012 планируется к выходу новый альбом с Филом Льюисом у микрофона — Hollywood Forever.[1]
Wasted is an L.A. Guns EP featuring singer Ralph Saenz, who has since become the vocalist for Steel Panther
Ralph Saenz - vocals
Tracii Guns - guitars
Johnny Crypt - bass guitar
Steve Riley - drums


Трекер:  [ 04-Сен-2012 16:14 ]

  

Скачать .torrent

Размер .torrent файла 18 KB


Размер: 214 MB
Хэш (hash) релиза: 4f379bfd2844df52ab2d3df76f86902b34827253

Еще никто не оставлял запись к записи скачать торрент L.A. Guns - Wasted . Будь первым!

!Обратная связь