Скачать через торрент музыку Miklagård - Miklagard - 1979, FLAC бесплатно без регистрации torrent

Если у вас наблюдаются проблемы со скриншотами, переходом по ссылками, скачиванием торрентов - проблемы в блокировщике рекламы AdBlock. #хорошегоДня!


Статистика раздачи
Размер:  213 MB   |    Зарегистрирован:  4 года 11 месяцев   |    .torrent скачан:  14 раз   |   
Раздают:  1  
   
Загрузка...
 
Автор Сообщение

Galfimbul

avatar Galfimbul


Miklagård / Miklagård

Жанр: Sympho Prog
Страна-производитель диска: Japan
Год издания: 2009
Издатель (лейбл): Tachika
Номер по каталогу: CDL P7918
Страна: Sweden
Аудиокодек: FLAC (*.flac)
Тип рипа: image+.cue
Битрейт аудио: lossless
Продолжительность: 34:58
Источник (релизер): Alex Gitlin Collection
Наличие сканов в содержимом раздачи: да

Треклист:
1. Kastraten (3:05)
2. Tralen (3:30)
3. Astrologen (3:52)
4. Narren (4:40)
5. Haxan (4:38)
6. Mellanspel - Erotic views approaching (2:28)
7. Soldaten (12:45)
Exact Audio Copy V1.0 beta 3 from 29. August 2011

EAC extraction logfile from 31. August 2012, 18:11

Miklagård / Miklagård

Used drive : HL-DT-STDVD+-RW GH50N Adapter: 0 ID: 1

Read mode : SecureUtilize accurate stream : YesDefeat audio cache : YesMake use of C2 pointers : No

Read offset correction : 667Overread into Lead-In and Lead-Out : NoFill up missing offset samples with silence : YesDelete leading and trailing silent blocks : NoNull samples used in CRC calculations : YesUsed interface : Native Win32 interface for Win NT & 2000

Used output format : User Defined EncoderSelected bitrate : 768 kBit/sQuality : HighAdd ID3 tag : YesCommand line compressor : C:\Program Files\Exact Audio Copy\FLAC\FLAC.EXEAdditional command line options : -6 -V -T "ARTIST=%artist%" -T "TITLE=%title%" -T "ALBUM=%albumtitle%" -T "DATE=%year%" -T "TRACKNUMBER=%tracknr%" -T "GENRE=%genre%" -T "COMMENT=%comment%" -T "BAND=%albuminterpret%" -T "COMPOSER=%composer%" %haslyrics%--tag-from-file=LYRICS="%lyricsfile%"%haslyrics% -T "DISCNUMBER=%cdnumber%" -T "TOTALDISCS=%totalcds%" -T "TOTALTRACKS=%numtracks%" %hascover%--picture="%coverfile%"%hascover% %source% -o %dest%

TOC of the extracted CD

Track | Start | Length | Start sector | End sector --------------------------------------------------------- 1 | 0:00.00 | 3:08.08 | 0 | 14107 2 | 3:08.08 | 3:31.46 | 14108 | 29978 3 | 6:39.54 | 3:53.54 | 29979 | 47507 4 | 10:33.33 | 4:43.10 | 47508 | 68742 5 | 15:16.43 | 4:38.02 | 68743 | 89594 6 | 19:54.45 | 2:30.21 | 89595 | 100865 7 | 22:24.66 | 13:09.27 | 100866 | 160067

Range status and errors

Selected range

Filename D:\My Music\Miklagård - Miklagård.wav

Peak level 100.0 % Extraction speed 2.7 X Range quality 100.0 % Copy CRC 9917B5F2 Copy OK

No errors occurred

End of status report
Доп. информация: http://www.progarchives.com/artist.asp?id=1671
Хочешь быть известным в роке – следует петь на английском. Спорно, конечно, но факт. Как-то об этом не задумывался Thomas Sundstrom, когда собрал одноразовый проект Миклагард (так древние викинги именовали Константинополь). В начале семидесятых Сундстрём подвязался на шведском телевидении, где сделал карьеру в качестве автора саундтреков для ряда фильмов. В группе довольствовался двумя музыкантами, остальное ваял сам. Музыка слегка напоминает британское трио Кита Эмерсона, но лишь по формату и отдельным пассажам. Шведскому товарищу далеко до коллеги-виртуоза, бледновата музыкальная палитра, хромает мелодическая составляющая, опять же шведский язык. Общий фон напоминает итальянских прогрессивистов типа Le Orme и более известных земляков Kaipa. Не способствовал раскрутке тираж, всего-то 1500 копий. Одним словом проект для внутреннего рынка. К 1979 году симфо-рок, исповедующий Томас и его команда, на шедевр не тянет, однако материал, уложившийся в 35 минут слушается хорошо, не вызывает отторжения. Хороша речитативная 13-минутная эпопея Soldaten. Добавляет интереса тот факт, что альбом большая редкость и официальных релизов до сих пор не выходило. Японская пиратка на «Тачике» единственная копия в цифре на сегодняшний день.
© Вадим Яловецкий
- Leif Lerman / bass, alto saxophone, vocals
- Bjorn Rothstein / drums
- Thomas Sundstrom / electric piano, organ, synthesizrs, vocals


Трекер:  [ 04-Сен-2012 16:14 ]

  

Скачать .torrent

Размер .torrent файла 17 KB


Размер: 213 MB
Хэш (hash) релиза: b6f74c8bf96ee042fa8d4fc912951976ff26d13b

Еще никто не оставлял запись к записи скачать торрент Miklagård - Miklagard - 1979, FLAC . Будь первым!

!Обратная связь